<?xml version="1.0" standalone="no"?>
<!DOCTYPE svg PUBLIC "-//W3C//DTD SVG 1.1//EN" "http://www.w3.org/Graphics/SVG/1.1/DTD/svg11.dtd" >
<svg xmlns="http://www.w3.org/2000/svg">
<metadata>Generated by IcoMoon</metadata>
<defs>
<font id="xiconbasic" horiz-adv-x="1024">
<font-face units-per-em="1024" ascent="960" descent="-64" />
<missing-glyph horiz-adv-x="1024" />
<glyph unicode="&#x20;" horiz-adv-x="512" d="" />
<glyph unicode="&#xe900;" glyph-name="book" d="M546.133 83.543c0 0-17.067-17.067-34.133-12.8-17.067 0-34.133 17.067-34.133 17.067s-46.933 46.933-89.6 46.933h-268.8c-21.333 0-34.133 17.067-34.133 34.133v580.267c0 17.067 17.067 29.867 34.133 34.133h256c51.2 0 102.4-21.333 136.533-55.467 38.4 34.133 85.333 55.467 136.533 55.467h256c17.067 0 34.133-12.8 34.133-34.133v-584.533c0-17.067-12.8-34.133-34.133-34.133h-268.8c-42.667 0-89.6-46.933-89.6-46.933zM473.6 668.076c-21.333 25.6-64 42.667-98.133 42.667h-217.6v-507.733h226.133c29.867 0 59.733-12.8 89.6-25.6zM866.133 710.743h-217.6c-34.133 0-76.8-17.067-98.133-42.667v-490.667c29.867 12.8 59.733 25.6 89.6 25.6h226.133z" />
<glyph unicode="&#xe901;" glyph-name="heart" d="M512 58.219v0c-14.036 0-28.072 7.018-36.845 17.545l-296.513 354.412c-1.755 1.755-3.509 3.509-3.509 5.264-1.755 1.755-3.509 5.264-5.264 7.018l-7.018 7.018c-3.509 3.509-5.264 8.773-7.018 12.282-12.282 21.054-21.054 43.863-26.318 68.426-3.509 14.036-3.509 29.827-3.509 43.863 0 121.061 94.744 221.069 212.296 221.069 70.181 0 135.098-36.845 173.697-94.744 38.599 57.899 103.516 94.744 173.697 94.744 117.552 0 212.296-98.253 212.296-221.069 0-15.791-1.755-29.827-3.509-43.863-5.264-24.563-14.036-47.372-26.318-70.181-1.755-3.509-3.509-7.018-5.264-10.527l-10.527-12.282c-1.755-1.755-1.755-1.755-3.509-3.509s-3.509-3.509-5.264-5.264l-294.758-352.657c-8.773-10.527-22.809-17.545-36.845-17.545zM529.545 121.381v0c0 0 0 0 0 0zM224.26 484.566l287.74-343.885 289.495 345.639c12.282 17.545 19.3 36.845 24.563 56.144 1.755 10.527 3.509 21.054 3.509 31.581 0 82.462-63.163 150.888-142.116 150.888-63.163 0-119.307-43.863-136.852-108.78-3.509-15.791-19.3-26.318-35.090-26.318h-7.018c-15.791 0-29.827 10.527-33.336 26.318-17.545 63.163-73.69 108.78-136.852 108.78-78.953 0-142.116-66.672-142.116-150.888 0-10.527 1.755-21.054 3.509-31.581 3.509-19.3 12.282-40.354 24.563-57.899z" />
<glyph unicode="&#xe902;" glyph-name="search" d="M845.358 40.674c-8.773 0-17.545 3.509-24.563 10.527l-187.733 192.997c-14.036 14.036-14.036 36.845 0 49.126s36.845 14.036 49.126 0l187.733-192.997c14.036-14.036 14.036-36.845 0-49.126-7.018-7.018-15.791-10.527-24.563-10.527zM464.628 177.526c-177.206 0-321.076 142.116-321.076 317.567s143.87 317.567 321.076 317.567c177.206 0 321.076-142.116 321.076-317.567s-143.87-317.567-321.076-317.567zM464.628 742.479c-138.607 0-250.896-110.534-250.896-247.387s112.289-247.387 250.896-247.387c138.607 0 250.896 110.534 250.896 247.387s-112.289 247.387-250.896 247.387z" />
<glyph unicode="&#xe903;" glyph-name="basket" d="M676.047 8.216h-328.095c-68.426 0-122.816 49.126-124.571 110.535l-43.863 471.965c0 1.755 0 1.755 0 3.509 0 21.054 15.791 45.617 49.126 45.617h566.709c28.072 0 49.126-21.054 49.126-47.372 0-1.755 0-1.755 0-3.509l-43.863-470.211c0-63.163-52.636-110.535-124.571-110.535zM251.454 569.661l42.108-445.647c0-1.755 0-1.755 0-3.509 0-28.072 28.072-42.108 54.39-42.108h328.095c26.318 0 54.39 14.036 54.39 42.108 0 1.755 0 1.755 0 3.509l42.108 445.647zM653.238 569.661c-19.3 0-35.090 15.791-35.090 35.090v52.636c0 66.672-45.617 117.553-105.271 117.553s-105.271-50.881-105.271-117.553v-52.636c0-19.3-15.791-35.090-35.090-35.090s-35.090 15.791-35.090 35.090v52.636c0 105.271 77.199 187.733 175.452 187.733s175.452-82.462 175.452-187.733v-52.636c0-19.3-15.791-35.090-35.090-35.090z" />
<glyph unicode="&#xe904;" glyph-name="person" d="M512 382.805c-126.325 0-228.087 101.762-228.087 228.087s101.762 228.087 228.087 228.087c126.325 0 228.087-101.762 228.087-228.087s-101.762-228.087-228.087-228.087zM512 768.799c-87.726 0-157.907-70.181-157.907-157.907s70.181-157.907 157.907-157.907c87.726 0 157.907 70.181 157.907 157.907s-70.181 157.907-157.907 157.907zM848.867 14.356h-664.962c-40.354 0-57.899 56.145-57.899 73.69v115.798c0 138.607 170.188 245.632 385.994 245.632s385.994-107.026 385.994-245.632v-115.798c0-33.336-12.282-73.69-49.126-73.69zM197.941 84.537h629.872c0 1.755 0 1.755 0 3.509v115.798c0 94.744-143.87 175.452-315.813 175.452s-315.813-80.708-315.813-175.452v-114.044c0-1.755 1.755-3.509 1.755-5.264zM196.187 88.046v0c0 0 0 0 0 0z" />
<glyph unicode="&#xe905;" glyph-name="cross" d="M775.856 129.278c-8.825 0-17.649 3.53-24.709 10.59l-525.949 524.184c-14.119 14.119-14.119 35.299 0 49.418s35.299 14.119 49.418 0l525.949-524.184c14.119-14.119 14.119-35.299 0-49.418-7.060-7.060-15.884-10.59-24.709-10.59zM248.142 129.278c-8.825 0-17.649 3.53-24.709 10.59-14.119 14.119-14.119 35.299 0 49.418l525.949 524.184c14.119 14.119 35.299 14.119 49.418 0s14.119-35.299 0-49.418l-525.949-524.184c-5.295-7.060-15.884-10.59-24.709-10.59z" />
<glyph unicode="&#xe906;" glyph-name="print1" d="M864.657 163.49h-142.116c-19.3 0-35.090 15.791-35.090 35.090s15.791 35.090 35.090 35.090h122.816v322.831c0 35.090-29.827 63.163-68.426 63.163h-526.355c-38.599 0-71.935-28.072-71.935-63.163v-322.831h122.816c19.3 0 35.090-15.791 35.090-35.090s-15.791-35.090-35.090-35.090h-138.607c-29.827 0-54.39 22.809-54.39 50.881v342.131c0 73.69 63.163 133.343 142.116 133.343h526.355c77.199 0 138.607-57.899 138.607-133.343v-342.131c0-28.072-22.809-50.881-50.881-50.881zM687.45 23.129h-350.903c-29.827 0-52.636 22.809-52.636 52.636v280.723c0 29.827 22.809 52.636 52.636 52.636h350.903c29.827 0 52.636-22.809 52.636-52.636v-280.723c0-29.827-22.809-52.636-52.636-52.636zM354.092 93.31h315.813v245.632h-315.813zM740.086 619.665c-19.3 0-35.090 15.791-35.090 35.090v105.271h-385.994v-105.271c0-19.3-15.791-35.090-35.090-35.090s-35.090 15.791-35.090 35.090v122.816c0 28.072 24.563 52.636 54.39 52.636h421.084c28.072 0 50.881-22.809 50.881-52.636v-122.816c0-19.3-15.791-35.090-35.090-35.090z" />
<glyph unicode="&#xe907;" glyph-name="camera" d="M512.81 219.633c-96.499 0-175.453 80.708-175.453 180.717s78.954 180.717 175.453 180.717c96.499 0 175.453-80.708 175.453-180.717s-78.954-180.717-175.453-180.717zM512.81 510.885c-57.9 0-105.272-49.127-105.272-110.536s47.372-110.536 105.272-110.536c57.9 0 105.272 49.127 105.272 110.536s-47.372 110.536-105.272 110.536zM881.262 93.307h-736.904c-19.3 0-35.091 15.791-35.091 35.091v491.269c0 19.3 15.791 35.091 35.091 35.091h173.699l42.109 85.972c5.264 12.282 17.545 19.3 31.582 19.3h245.635c14.036 0 26.318-7.018 31.582-19.3l42.109-85.972h168.435c19.3 0 35.091-15.791 35.091-35.091v-491.269c1.755-19.3-14.036-35.091-33.336-35.091zM179.449 163.488h666.722v421.088h-156.153c-14.036 0-26.318 7.018-31.582 19.3l-42.109 85.972h-201.771l-42.109-85.972c0-1.755-1.755-3.509-1.755-5.264-3.509-3.509-7.018-7.018-10.527-10.527-3.509-1.755-8.773-3.509-14.036-5.264-1.755 0-3.509 0-5.264 0h-159.662v-419.333z" />
<glyph unicode="&#xe908;" glyph-name="copy" d="M723.352 23.128h-526.355c-29.827 0-52.636 22.809-52.636 52.636v596.536c0 29.827 22.809 52.636 52.636 52.636h526.355c29.827 0 52.636-22.809 52.636-52.636v-596.536c0-29.827-22.809-52.636-52.636-52.636zM214.542 93.308h491.265v561.445h-491.265zM846.169 145.944c-19.3 0-35.090 15.791-35.090 35.090v578.991h-508.81c-19.3 0-35.090 15.791-35.090 35.090s15.791 35.090 35.090 35.090h524.601c10.527 0 28.072 0 40.354-12.282 5.264-5.264 12.282-15.791 12.282-31.581v-605.308c1.755-19.3-14.036-35.090-33.336-35.090z" />
<glyph unicode="&#xe909;" glyph-name="good" d="M340.382 57.243h-191.242c-31.581 0-57.899 24.563-57.899 54.39v373.712c0 28.072 24.563 63.163 57.899 63.163h191.242c24.563 0 49.127-19.3 49.127-63.163v-373.712c0-36.845-24.563-54.39-49.127-54.39zM161.421 127.423h157.907v350.904h-157.907zM742.167 92.333h-36.845c-19.3 0-35.090 15.791-35.090 35.090s15.791 35.090 35.090 35.090h36.845c1.755 0 36.845 0 43.863 19.3 10.527 26.318 50.881 185.979 75.444 285.986 0 8.773-8.773 36.845-15.791 45.617h-210.542c-19.3 0-35.090 15.791-35.090 35.090s15.791 35.090 35.090 35.090h217.56c12.282 0 29.827-3.509 47.372-24.563 22.809-28.072 36.845-77.199 31.581-107.026-7.018-26.318-63.163-256.16-78.953-294.759-19.3-47.372-70.181-64.917-110.535-64.917zM371.964 423.937c-14.036 0-26.318 8.773-33.336 22.809-7.018 17.545 1.755 38.599 19.3 45.617l28.072 10.527 73.69 131.589c0 26.318-1.755 82.462 7.018 107.026 10.527 28.072 47.372 52.636 84.217 54.39 28.072 1.755 77.199-7.018 112.289-80.708 54.39-117.553-1.755-187.733-5.264-189.488-12.282-14.036-35.090-17.545-49.127-5.264s-17.545 35.090-5.264 49.127c0 1.755 29.827 40.354-5.264 115.798-8.773 17.545-21.054 38.599-40.354 40.354-12.282 1.755-22.809-5.264-26.318-8.773-3.509-12.282-3.509-52.636-1.755-87.726v-10.527l-96.498-170.188-50.881-21.054c-1.755-3.509-5.264-3.509-10.527-3.509zM740.412 92.333h-254.405l-5.264 1.755c-40.354 14.036-124.571 47.372-124.571 47.372l24.563 64.917c0 0 77.199-29.827 119.307-43.863h242.123c19.3 0 35.090-15.791 35.090-35.090s-17.545-35.090-36.845-35.090z" />
<glyph unicode="&#xe90a;" glyph-name="eye" d="M512 303.851c-68.426 0-122.816 54.39-122.816 122.816s54.39 122.816 122.816 122.816c68.426 0 122.816-54.39 122.816-122.816s-54.39-122.816-122.816-122.816zM512 479.303c-29.827 0-52.635-22.809-52.635-52.635s22.809-52.635 52.635-52.635c29.827 0 52.635 22.809 52.635 52.635s-22.809 52.635-52.635 52.635zM143.552 391.577c-3.509 0-8.773 0-12.282 1.755-17.545 7.018-26.318 28.072-19.3 45.617 56.144 145.624 240.368 268.44 401.783 268.44 159.66 0 342.13-121.061 400.028-264.931 7.018-17.545-1.755-38.599-19.3-45.617s-38.599 1.755-45.617 19.3c-47.372 117.552-205.278 221.068-336.866 221.068s-291.249-107.025-336.866-222.823c-3.509-14.036-17.545-22.809-31.581-22.809zM512 145.946c-161.415 0-345.639 122.816-401.783 268.44-7.018 17.545 1.755 38.599 19.3 45.617s38.599-1.755 45.617-19.3c45.617-117.552 205.278-222.823 336.866-222.823s287.74 103.516 335.112 219.314c7.018 17.545 28.072 26.318 45.617 19.3s26.318-28.072 19.3-45.617c-56.144-143.87-240.368-264.931-400.028-264.931z" />
<glyph unicode="&#xe90b;" glyph-name="home" d="M389.299 24.663h-177.206c-28.072 0-50.881 21.054-50.881 47.372v443.893h70.181v-421.084h157.907zM812.137 24.663h-194.751v70.181h175.452v403.539h70.181v-426.348c0-26.318-22.809-47.372-50.881-47.372zM827.928 465.047c-8.773 0-17.545 3.509-24.563 8.773l-293.004 273.705-291.25-266.687c-14.036-12.282-36.845-12.282-49.126 1.755s-12.282 36.845 1.755 49.126l315.813 287.741c14.036 12.282 35.090 12.282 47.372 0l315.813-296.513c14.036-14.036 14.036-35.090 1.755-49.126-5.264-5.264-15.791-8.773-24.563-8.773zM652.476 24.663h-70.181v228.087h-140.361v-228.087h-70.181v263.178c0 19.3 15.791 35.090 35.090 35.090h210.542c19.3 0 35.090-15.791 35.090-35.090z" />
<glyph unicode="&#xe90c;" glyph-name="edit" d="M732.191 16.111h-596.536c-19.3 0-35.090 15.791-35.090 35.090v596.536c0 19.3 15.791 35.090 35.090 35.090h245.632c19.3 0 35.090-15.791 35.090-35.090s-15.791-35.090-35.090-35.090h-210.542v-526.355h526.355v245.632c0 19.3 15.791 35.090 35.090 35.090s35.090-15.791 35.090-35.090v-280.723c0-19.3-15.791-35.090-35.090-35.090zM367.251 245.953c-8.773 0-17.545 3.509-24.563 10.527-8.773 8.773-12.282 19.3-10.527 29.827l28.072 175.452c1.755 7.018 5.264 14.036 10.527 19.3l343.885 345.64c14.036 14.036 35.090 14.036 49.126 0l149.134-147.379c7.018-7.018 10.527-15.791 10.527-24.563s-3.509-17.545-10.527-24.563l-343.885-345.64c-5.264-5.264-12.282-8.773-19.3-10.527l-175.452-28.072c-3.509 1.755-5.264 0-7.018 0zM426.905 440.704l-17.545-117.553 117.553 19.3 310.55 312.304-98.253 98.253zM786.581 528.43c-8.773 0-17.545 3.509-24.563 10.527l-136.852 136.852c-14.036 14.036-14.036 35.090 0 49.126s35.090 14.036 49.126 0l136.852-136.852c14.036-14.036 14.036-35.090 0-49.126-7.018-7.018-15.791-10.527-24.563-10.527z" />
<glyph unicode="&#xe90d;" glyph-name="umbrella" d="M841.849 382.804h-661.453c-26.318 0-42.108 21.054-49.126 38.599l-1.755 5.264v5.264c-1.755 10.527-1.755 26.318-1.755 36.845 0 208.788 171.943 378.976 384.239 378.976s384.239-170.188 384.239-380.73c0-12.282 0-24.563-1.755-35.090v-5.264l-1.755-5.264c-8.773-17.545-26.318-38.599-50.881-38.599zM196.187 452.985h628.117c0 3.509 0 8.773 0 12.282 0 171.943-140.361 310.55-314.059 310.55s-314.059-138.607-314.059-308.795c0-3.509 0-8.773 0-14.036zM527.791 119.626c-19.3 0-35.090 15.791-35.090 35.090v245.632c0 19.3 15.791 35.090 35.090 35.090s35.090-15.791 35.090-35.090v-245.632c0-19.3-15.791-35.090-35.090-35.090zM417.256 5.583c-80.708 0-145.625 63.163-145.625 138.607 0 19.3 15.791 35.090 35.090 35.090s35.090-15.791 35.090-35.090c0-38.599 33.336-68.426 75.444-68.426s75.444 31.581 75.444 68.426c0 19.3 15.791 35.090 35.090 35.090s35.090-15.791 35.090-35.090c0-75.444-64.917-138.607-145.625-138.607z" />
<glyph unicode="&#xe90e;" glyph-name="volume" d="M432.169 232.313h-140.362c-29.827 0-52.636 22.809-52.636 52.636v280.725c0 29.827 22.809 52.636 52.636 52.636h140.362c29.827 0 52.636-22.809 52.636-52.636v-280.725c0-29.827-22.809-52.636-52.636-52.636zM309.352 302.495h105.272v245.634h-105.272zM747.984 21.77c-7.018 0-14.036 1.755-19.3 7.018l-280.725 194.753c-15.791 10.527-19.3 33.336-8.773 49.127s33.336 19.3 49.127 8.773l226.334-156.153v603.559l-226.334-156.153c-15.791-10.527-38.6-7.018-49.127 8.773s-7.018 38.6 8.773 49.127l280.725 194.753c10.527 7.018 24.563 8.773 36.845 1.755 12.282-5.264 19.3-17.545 19.3-31.582v-736.903c0-12.282-7.018-24.563-19.3-31.582-7.018-3.509-12.282-5.264-17.545-5.264z" />
<glyph unicode="&#xe90f;" glyph-name="shop" d="M830.763 1.583h-637.561c-19.481 0-35.42 15.939-35.42 35.42v407.331c0 19.481 15.939 35.42 35.42 35.42s35.42-15.939 35.42-35.42v-371.911h566.721v371.911c0 19.481 15.939 35.42 35.42 35.42s35.42-15.939 35.42-35.42v-407.331c0-19.481-15.939-35.42-35.42-35.42zM600.533 19.293h-177.1c-30.107 0-53.13 23.023-53.13 53.13v177.1c0 30.107 23.023 53.13 53.13 53.13h177.1c30.107 0 53.13-23.023 53.13-53.13v-177.1c0-30.107-23.023-53.13-53.13-53.13zM441.142 90.133h141.68v141.68h-141.68zM947.649 539.968c-14.168 0-26.565 7.084-31.878 21.252l-100.947 219.604h-602.141l-100.947-216.062c-8.855-17.71-30.107-24.794-47.817-17.71-17.71 8.855-24.794 30.107-17.71 47.817l106.26 226.688c1.771 7.084 5.313 14.168 10.626 19.481 12.397 12.397 28.336 10.626 37.191 10.626 1.771 0 3.542 0 3.542 0h616.309c1.771 0 3.542 0 3.542 0 7.084 0 23.023 1.771 37.191-10.626 5.313-5.313 8.855-12.397 10.626-19.481l106.26-230.23c8.855-17.71 0-38.962-17.71-47.817-3.542-1.771-8.855-3.542-12.397-3.542zM403.951 417.769c-79.695 0-143.451 65.527-143.451 143.451 0 19.481 15.939 35.42 35.42 35.42s35.42-15.939 35.42-35.42c0-40.733 33.649-72.611 72.611-72.611s72.611 33.649 72.611 72.611c0 19.481 15.939 35.42 35.42 35.42s35.42-15.939 35.42-35.42c0-77.924-65.527-143.451-143.451-143.451zM837.847 417.769c-79.695 0-143.451 65.527-143.451 143.451 0 19.481 15.939 35.42 35.42 35.42s35.42-15.939 35.42-35.42c0-40.733 33.649-72.611 72.611-72.611s72.611 33.649 72.611 72.611c0 19.481 15.939 35.42 35.42 35.42s35.42-15.939 35.42-35.42c1.771-77.924-63.756-143.451-143.451-143.451zM620.014 417.769c-79.695 0-143.451 65.527-143.451 143.451 0 19.481 15.939 35.42 35.42 35.42s35.42-15.939 35.42-35.42c0-40.733 33.649-72.611 72.611-72.611s72.611 33.649 72.611 72.611c0 19.481 15.939 35.42 35.42 35.42s35.42-15.939 35.42-35.42c1.771-77.924-63.756-143.451-143.451-143.451zM186.118 417.769c-79.695 0-143.451 65.527-143.451 143.451 0 19.481 15.939 35.42 35.42 35.42s35.42-15.939 35.42-35.42c0-40.733 33.649-72.611 72.611-72.611s72.611 33.649 72.611 72.611c0 19.481 15.939 35.42 35.42 35.42s35.42-15.939 35.42-35.42c0-77.924-63.756-143.451-143.451-143.451z" />
<glyph unicode="&#xe910;" glyph-name="arrow-right" d="M914.107 390.146c-8.773 0-17.545 3.509-24.563 10.527l-291.249 300.022c-14.036 14.036-12.282 36.845 0 49.126 14.036 14.036 36.845 12.282 49.126 0l291.249-300.022c14.036-14.036 12.282-36.845 0-49.126-7.018-8.773-15.791-10.527-24.563-10.527zM900.071 391.901h-789.531c-19.3 0-35.090 15.791-35.090 35.090s15.791 35.090 35.090 35.090h789.531c19.3 0 35.090-15.791 35.090-35.090s-15.791-35.090-35.090-35.090zM622.858 93.634c-8.773 0-17.545 3.509-24.563 10.527-14.036 14.036-14.036 35.090 0 49.126l289.495 296.513c14.036 14.036 35.090 14.036 49.126 0s14.036-35.090 0-49.126l-289.495-296.513c-7.018-7.018-15.791-10.527-24.563-10.527z" />
<glyph unicode="&#xe911;" glyph-name="jewel" d="M880.611 533.691c-12.282 0-24.563 7.018-31.581 19.3l-85.971 166.678h-485.999l-103.516-166.678c-10.527-15.791-31.581-21.054-49.126-10.527-15.791 10.527-21.054 31.581-10.527 49.126l107.025 171.942c5.264 12.282 17.545 29.827 50.881 29.827h500.035c35.090 0 47.372-17.545 50.881-31.581l89.48-173.696c8.773-17.545 1.755-38.599-15.791-47.372-5.264-5.264-10.527-7.018-15.791-7.018zM284.078 745.987c0 0 0 0 0 0s0 0 0 0zM757.795 745.987c0 0 0 0 0 0s0 0 0 0zM515.673 59.974c-21.054 0-43.863 10.527-56.144 26.318l-340.375 431.609c-12.282 15.791-14.036 35.090-7.018 50.881 5.264 10.527 19.3 29.827 57.899 29.827h680.749c38.599 0 52.635-17.545 57.899-29.827 7.018-15.791 5.264-35.090-7.018-49.126l-340.375-436.873c-8.773-15.791-26.318-22.809-45.617-22.809zM508.655 124.891c0 0 0 0 0 0zM515.673 128.4c0 0 0 0 0 0s0 0 0 0zM201.616 526.673l312.303-394.765 308.794 394.765zM536.727 72.256c-3.509 0-5.264 0-8.773 1.755-19.3 5.264-29.827 22.809-26.318 42.108l145.624 621.096c5.264 19.3 22.809 29.827 42.108 26.318 19.3-5.264 29.827-22.809 26.318-42.108l-145.624-621.096c-3.509-17.545-17.545-28.072-33.336-28.072zM499.882 63.483c-15.791 0-29.827 10.527-35.090 28.072l-138.606 629.869c-3.509 19.3 7.018 36.845 26.318 42.108 19.3 3.509 36.845-7.018 42.108-26.318l138.606-629.869c3.509-19.3-7.018-36.845-26.318-42.108-3.509 0-5.264-1.755-7.018-1.755z" />
<glyph unicode="&#xe912;" glyph-name="folder" d="M879.571 58.219h-736.897c-49.126 0-52.636 75.444-52.636 75.444v503.546c0 19.3 15.791 35.090 35.090 35.090s35.090-15.791 35.090-35.090v-503.546c0-1.755 0-3.509 1.755-5.264h700.052c0 3.509 1.755 5.264 1.755 7.018v466.702h-421.084c-19.3 0-35.090 15.791-35.090 35.090s15.791 35.090 35.090 35.090h438.629c29.827 0 52.636-22.809 52.636-50.881v-486.001c-1.755-1.755-5.264-77.199-54.39-77.199zM125.129 619.664c-19.3 0-35.090 15.791-35.090 35.090v73.69c0 38.599 28.072 49.126 43.863 49.126h221.069c0 0 0 0 1.755 0 5.264 1.755 22.809 5.264 36.845-7.018 5.264-3.509 8.773-10.527 12.282-15.791l49.126-82.462c10.527-17.545 3.509-38.599-12.282-47.372-17.545-10.527-38.599-3.509-47.372 12.282l-42.108 70.181h-191.242v-52.636c-1.755-19.3-17.545-35.090-36.845-35.090zM335.671 740.726c0 0 0 0 0 0s0 0 0 0zM844.481 724.935h-350.903c-19.3 0-35.090 15.791-35.090 35.090s15.791 35.090 35.090 35.090h350.903c19.3 0 35.090-15.791 35.090-35.090s-15.791-35.090-35.090-35.090z" />
<glyph unicode="&#xe913;" glyph-name="folder-add" d="M879.571 58.219h-736.897c-49.126 0-52.636 75.444-52.636 75.444v503.546c0 19.3 15.791 35.090 35.090 35.090s35.090-15.791 35.090-35.090v-503.546c0-1.755 0-3.509 1.755-5.264h700.052c0 3.509 1.755 5.264 1.755 7.018v466.702h-421.084c-19.3 0-35.090 15.791-35.090 35.090s15.791 35.090 35.090 35.090h438.629c29.827 0 52.636-22.809 52.636-50.881v-486.001c-1.755-1.755-5.264-77.199-54.39-77.199zM125.129 619.665c-19.3 0-35.090 15.791-35.090 35.090v73.69c0 38.599 28.072 49.126 43.863 49.126h221.069c0 0 0 0 1.755 0 5.264 1.755 22.809 5.264 36.845-7.018 5.264-3.509 8.773-10.527 12.282-15.791l49.126-82.462c10.527-17.545 3.509-38.599-12.282-47.372-17.545-10.527-38.599-3.509-47.372 12.282l-42.108 70.181h-191.242v-52.636c-1.755-19.3-17.545-35.090-36.845-35.090zM335.671 740.726c0 0 0 0 0 0s0 0 0 0zM844.481 724.936h-350.903c-19.3 0-35.090 15.791-35.090 35.090s15.791 35.090 35.090 35.090h350.903c19.3 0 35.090-15.791 35.090-35.090s-15.791-35.090-35.090-35.090zM651.484 338.942h-280.723c-19.3 0-35.090 15.791-35.090 35.090s15.791 35.090 35.090 35.090h280.723c19.3 0 35.090-15.791 35.090-35.090s-15.791-35.090-35.090-35.090zM511.123 198.581c-19.3 0-35.090 15.791-35.090 35.090v289.495c0 19.3 15.791 35.090 35.090 35.090s35.090-15.791 35.090-35.090v-289.495c0-19.3-15.791-35.090-35.090-35.090z" />
<glyph unicode="&#xe914;" glyph-name="upload-cloud" d="M755.878 244.198c-19.3 0-35.090 15.791-35.090 35.090s14.036 33.336 33.336 35.090c0 0 1.755 0 1.755 0 47.372 1.755 98.253 28.072 98.253 82.462 0 28.072-12.282 49.126-22.809 61.408 0 0-1.755 1.755-1.755 1.755-17.545 24.563-47.372 40.354-78.953 40.354-3.509 0-5.264 0-8.773 0-10.527-1.755-22.809 3.509-29.827 12.282s-10.527 21.054-7.018 31.581c3.509 12.282 5.264 26.318 5.264 40.354 0 84.217-66.672 152.643-149.134 152.643s-149.134-68.426-149.134-152.643c0-3.509 0-7.018 0-8.773 0-12.282-5.264-22.809-14.036-29.827-10.527-7.018-22.809-8.773-33.336-3.509-17.545 7.018-36.845 10.527-57.899 10.527-75.444 0-136.852-54.39-136.852-119.307 0-31.581 8.773-108.78 96.498-115.798 1.755 0 3.509 0 5.264-1.755 17.545-1.755 29.827-17.545 29.827-35.090 0-19.3-15.791-35.090-35.090-35.090-3.509 0-7.018 0-10.527 1.755-94.744 10.527-156.152 82.462-156.152 185.979 0 105.271 92.989 189.488 207.033 189.488 12.282 0 26.318-1.755 38.599-3.509 15.791 107.026 107.026 187.733 215.806 187.733 121.062 0 219.315-100.007 219.315-222.824 0-5.264 0-10.527 0-15.791 43.863-7.018 82.462-31.581 107.026-66.672 24.563-29.827 36.845-66.672 36.845-105.271 0-94.744-82.462-147.379-163.17-152.643-1.755 0-3.509 0-5.264 0zM750.614 309.116c0 0 0 0 0 0s0 0 0 0zM275.14 238.935c-19.3 0-35.090 19.3-35.090 38.599s15.791 33.336 35.090 33.336l114.044-1.755c0 0 0 0 0 0 19.3 0 35.090-12.282 35.090-31.581s-15.791-36.845-35.090-36.845zM643.589 238.935c-19.3 0-35.090 17.545-35.090 36.845s15.791 33.336 35.090 33.336h96.498c0 0 0 0 0 0 19.3 0 35.090-12.282 35.090-31.581s-15.791-35.090-35.090-36.845l-96.498-1.755c0 0 0 0 0 0zM510.245 45.938c-19.3 0-35.090 15.791-35.090 35.090v403.539c0 14.036 8.773 26.318 21.054 31.581s26.318 3.509 36.845-5.264l110.535-96.498c14.036-12.282 15.791-35.090 3.509-49.126s-35.090-15.791-49.126-3.509l-52.636 45.617v-326.34c0-19.3-15.791-35.090-35.090-35.090zM399.711 358.242c-10.527 0-21.054 5.264-26.318 12.282-12.282 15.791-10.527 36.845 5.264 49.126l110.535 91.235c15.791 12.282 36.845 10.527 49.126-5.264s10.527-36.845-5.264-49.126l-110.535-91.235c-7.018-3.509-15.791-7.018-22.809-7.018z" />
<glyph unicode="&#xe915;" glyph-name="download-cloud" d="M755.877 267.883c-19.3 0-35.090 15.791-35.090 35.090s14.036 33.336 33.336 35.090c0 0 1.755 0 1.755 0 47.372 1.755 98.253 28.072 98.253 82.462 0 28.072-12.282 49.126-22.809 61.408 0 0-1.755 1.755-1.755 1.755-17.545 24.563-47.372 40.354-78.953 40.354-3.509 0-5.264 0-8.773 0-12.282-1.755-22.809 3.509-29.827 12.282s-10.527 21.054-7.018 31.581c3.509 12.282 5.264 26.318 5.264 40.354 0 84.217-66.672 152.643-149.134 152.643s-149.134-68.426-149.134-152.643c0-3.509 0-7.018 0-8.773 0-12.282-5.264-22.809-14.036-29.827-10.527-7.018-22.809-8.773-33.336-3.509-17.545 7.018-36.845 10.527-57.899 10.527-75.444 0-136.852-54.39-136.852-119.307 0-31.581 8.773-108.78 96.498-115.798 1.755 0 3.509 0 5.264-1.755 17.545-1.755 29.827-17.545 29.827-35.090 0-19.3-15.791-35.090-35.090-35.090-3.509 0-7.018 0-10.527 1.755-94.744 10.527-156.152 82.462-156.152 185.979 0 105.271 92.989 189.488 207.033 189.488 12.282 0 26.318-1.755 38.599-3.509 15.791 107.026 107.026 187.733 215.806 187.733 121.062 0 219.315-100.007 219.315-222.824 0-5.264 0-10.527 0-15.791 43.863-7.018 82.462-31.581 107.026-66.672 24.563-29.827 36.845-66.672 36.845-105.271 0-94.744-82.462-147.379-163.17-152.643-3.509 0-3.509 0-5.264 0zM273.385 336.31c0 0 0 0 0 0s0 0 0 0zM275.139 262.62c-19.3 0-35.090 19.3-35.090 38.599s15.791 33.336 35.090 33.336l114.044-1.755c0 0 0 0 0 0 19.3 0 35.090-12.282 35.090-31.581s-15.791-36.845-35.090-36.845zM643.588 262.62c-19.3 0-35.090 17.545-35.090 36.845s15.791 36.845 35.090 36.845l96.498 1.755c19.3 0 35.090-15.791 35.090-35.090s-15.791-36.845-35.090-36.845l-96.498-3.509c0 0 0 0 0 0zM510.244 22.251c-8.773 0-15.791 3.509-22.809 8.773l-110.535 92.989c-14.036 12.282-17.545 35.090-3.509 49.126 12.282 14.036 35.090 17.545 49.126 3.509l52.636-45.617v324.586c0 19.3 15.791 35.090 35.090 35.090s35.090-15.791 35.090-35.090v-398.275c0-14.036-8.773-26.318-21.054-31.581-3.509-1.755-8.773-3.509-14.036-3.509zM510.244 22.251c-10.527 0-21.054 3.509-26.318 12.282-12.282 15.791-10.527 36.845 5.264 49.126l110.535 91.235c15.791 12.282 36.845 10.527 49.126-5.264s10.527-36.845-5.264-49.126l-110.535-91.235c-7.018-3.509-15.791-7.018-22.809-7.018z" />
<glyph unicode="&#xe916;" glyph-name="layers" d="M511.121 172.92c-14.036 0-28.072 5.264-36.845 15.791l-280.723 280.723c-10.527 10.527-15.791 22.809-15.791 36.845s5.264 28.072 15.791 36.845l280.723 280.723c19.3 19.3 54.39 19.3 75.444 0l280.723-280.723c10.527-10.527 15.791-22.809 15.791-36.845s-5.264-28.072-15.791-36.845v0 0l-280.723-280.723c-10.527-10.527-24.563-15.791-38.599-15.791zM254.962 506.278l256.159-256.159 256.159 256.159-256.159 256.159zM511.121 15.014c-14.036 0-28.072 5.264-36.845 15.791l-280.723 280.723c-14.036 14.036-14.036 35.090 0 49.126s35.090 14.036 49.126 0l268.441-268.441 268.441 268.441c14.036 14.036 35.090 14.036 49.126 0s14.036-35.090 0-49.126l-280.723-280.723c-8.773-10.527-22.809-15.791-36.845-15.791z" />
<glyph unicode="&#xe917;" glyph-name="separate" d="M512 23.126c-222.825 0-403.541 178.962-403.541 400.032 0 224.58 175.453 407.050 391.26 407.050 224.58 0 415.823-185.98 415.823-407.050s-180.716-400.032-403.541-400.032zM499.718 760.027c-177.207 0-321.079-150.889-321.079-336.869 0-180.716 149.135-329.851 333.36-329.851s333.36 147.38 333.36 329.851c0 178.962-161.417 336.869-345.642 336.869zM512 31.899c-19.3 0-35.091 15.791-35.091 35.091v719.356c0 19.3 15.791 35.091 35.091 35.091s35.091-15.791 35.091-35.091v-719.356c0-19.3-15.791-35.091-35.091-35.091z" />
<glyph unicode="&#xe918;" glyph-name="attach" d="M301.458 210.862c-19.3 0-35.090 15.791-35.090 35.090v315.813c0 19.3 15.791 35.090 35.090 35.090s35.090-15.791 35.090-35.090v-315.813c0-19.3-15.791-35.090-35.090-35.090zM512 35.41c-135.098 0-245.632 103.517-245.632 229.842 0 19.3 15.791 35.090 35.090 35.090s35.090-15.791 35.090-35.090c0-87.726 78.953-159.661 175.452-159.661s175.452 71.935 175.452 159.661c0 19.3 15.791 35.090 35.090 35.090s35.090-15.791 35.090-35.090c0-128.080-110.535-229.842-245.632-229.842zM722.542 210.862c-19.3 0-35.090 15.791-35.090 35.090v385.994c0 19.3 15.791 35.090 35.090 35.090s35.090-15.791 35.090-35.090v-385.994c0-19.3-15.791-35.090-35.090-35.090zM424.274 602.119c-19.3 0-35.090 15.791-35.090 35.090 0 96.498 85.971 180.715 184.224 180.715 101.762 0 184.224-75.444 184.224-168.434 0-19.3-15.791-35.090-35.090-35.090s-35.090 15.791-35.090 35.090c0 54.39-50.881 98.253-114.044 98.253-64.917 0-114.044-57.899-114.044-110.535 0-19.3-15.791-35.090-35.090-35.090zM424.274 263.497c-19.3 0-35.090 15.791-35.090 35.090v315.813c0 19.3 15.791 35.090 35.090 35.090s35.090-15.791 35.090-35.090v-315.813c0-19.3-15.791-35.090-35.090-35.090zM512 175.772c-68.426 0-122.816 54.39-122.816 122.816 0 19.3 15.791 35.090 35.090 35.090s35.090-15.791 35.090-35.090c0-29.827 22.809-52.636 52.636-52.636s52.636 22.809 52.636 52.636c0 19.3 15.791 35.090 35.090 35.090s35.090-15.791 35.090-35.090c0-68.426-54.39-122.816-122.816-122.816zM599.726 263.497c-19.3 0-35.090 15.791-35.090 35.090v263.178c0 19.3 15.791 35.090 35.090 35.090s35.090-15.791 35.090-35.090v-263.178c0-19.3-15.791-35.090-35.090-35.090z" />
<glyph unicode="&#xe919;" glyph-name="arrow-left" d="M122.497 389.823c-8.773 0-17.545 3.509-24.563 10.527-14.036 14.036-14.036 35.090 0 49.126l291.25 300.022c14.036 14.036 35.090 14.036 49.126 0s14.036-35.090 0-49.126l-291.25-300.022c-7.018-7.018-15.791-10.527-24.563-10.527zM906.766 391.577h-789.533c-19.3 0-35.090 15.791-35.090 35.090s15.791 35.090 35.090 35.090h789.533c19.3 0 35.090-15.791 35.090-35.090s-15.791-35.090-35.090-35.090zM411.992 93.309c-8.773 0-17.545 3.509-24.563 10.527l-289.495 296.513c-14.036 14.036-14.036 36.845 0 49.126 14.036 14.036 36.845 14.036 49.126 0l289.495-296.513c14.036-14.036 14.036-36.845 0-49.126-7.018-7.018-15.791-10.527-24.563-10.527z" />
<glyph unicode="&#xe91a;" glyph-name="display-tile" d="M424.273 461.758h-228.087c-29.827 0-52.636 22.809-52.636 52.636v228.087c0 29.827 22.809 52.636 52.636 52.636h228.087c29.827 0 52.636-22.809 52.636-52.636v-228.087c0-29.827-22.809-52.636-52.636-52.636zM213.731 531.939h192.997v192.997h-192.997zM827.812 461.758h-228.087c-29.827 0-52.636 22.809-52.636 52.636v228.087c0 29.827 22.809 52.636 52.636 52.636h228.087c29.827 0 52.636-22.809 52.636-52.636v-228.087c0-29.827-22.809-52.636-52.636-52.636zM617.27 531.939h192.997v192.997h-192.997zM424.273 58.219h-228.087c-29.827 0-52.636 22.809-52.636 52.636v228.087c0 29.827 22.809 52.636 52.636 52.636h228.087c29.827 0 52.636-22.809 52.636-52.636v-228.087c0-29.827-22.809-52.636-52.636-52.636zM213.731 128.4h192.997v192.997h-192.997zM827.812 58.219h-228.087c-29.827 0-52.636 22.809-52.636 52.636v228.087c0 29.827 22.809 52.636 52.636 52.636h228.087c29.827 0 52.636-22.809 52.636-52.636v-228.087c0-29.827-22.809-52.636-52.636-52.636zM617.27 128.4h192.997v192.997h-192.997z" />
<glyph unicode="&#xe91b;" glyph-name="display-line" d="M827.812 461.758h-631.626c-29.827 0-52.636 22.809-52.636 52.636v210.542c0 29.827 22.809 52.636 52.636 52.636h631.626c29.827 0 52.636-22.809 52.636-52.636v-210.542c0-29.827-22.809-52.636-52.636-52.636zM213.732 531.939h596.536v175.452h-596.536zM827.812 75.764h-631.626c-29.827 0-52.636 22.809-52.636 52.636v210.542c0 29.827 22.809 52.636 52.636 52.636h631.626c29.827 0 52.636-22.809 52.636-52.636v-210.542c0-29.827-22.809-52.636-52.636-52.636zM213.732 145.945h596.536v175.452h-596.536z" />
<glyph unicode="&#xe91c;" glyph-name="weather" d="M304.090 299.465c-7.018 0-14.036 1.755-21.054 7.018-47.372 35.090-73.69 87.726-73.69 145.625 0 100.007 84.217 180.715 185.979 180.715 84.217 0 159.661-56.145 180.715-135.098 5.264-19.3-5.264-38.599-24.563-43.863s-38.599 5.264-43.863 24.563c-14.036 49.126-59.654 82.462-112.289 82.462-64.917 0-115.798-49.126-115.798-110.535 0-35.090 15.791-66.672 45.617-87.726 15.791-12.282 19.3-33.336 7.018-49.126-7.018-8.773-17.545-14.036-28.072-14.036zM828.69 45.060h-454.42c-87.726 7.018-147.379 78.953-147.379 178.961 0 94.744 85.971 173.697 191.242 173.697 10.527 0 21.054 0 31.581-1.755 15.791 94.744 100.007 166.679 198.26 166.679 110.535 0 201.769-91.235 201.769-201.769 0-3.509 0-7.018 0-12.282 38.599-7.018 73.69-29.827 96.498-61.408 22.809-28.072 35.090-63.163 35.090-98.253 0-77.199-64.917-140.361-152.643-143.87zM379.534 115.241h447.402c40.354 1.755 84.217 28.072 84.217 73.69 0 19.3-7.018 40.354-19.3 54.39l-1.755 1.755c-15.791 21.054-42.108 35.090-70.181 35.090-1.755 0-3.509 0-5.264 0s-1.755 0-3.509 0l-47.372-1.755 10.527 45.617c3.509 10.527 5.264 22.809 5.264 35.090 0 71.935-59.654 131.589-131.589 131.589s-131.589-59.654-131.589-131.589c0-3.509 0-5.264 0-8.773l3.509-54.39-50.881 21.054c-15.791 7.018-33.336 10.527-50.881 10.527-66.672 0-121.062-45.617-121.062-103.517 0-45.617 21.054-101.762 82.462-108.78zM376.025 667.914c-19.3 0-35.090 15.791-35.090 35.090v70.181c0 19.3 15.791 35.090 35.090 35.090s35.090-15.791 35.090-35.090v-70.181c0-19.3-15.791-35.090-35.090-35.090zM147.938 404.736h-70.181c-19.3 0-35.090 15.791-35.090 35.090s15.791 35.090 35.090 35.090h70.181c19.3 0 35.090-15.791 35.090-35.090s-15.791-35.090-35.090-35.090zM576.040 595.979c-8.773 0-17.545 3.509-24.563 10.527-14.036 14.036-14.036 35.090 0 49.126l54.39 54.39c14.036 14.036 35.090 14.036 49.126 0s14.036-35.090 0-49.126l-54.39-54.39c-5.264-7.018-15.791-10.527-24.563-10.527zM211.1 595.979c-8.773 0-17.545 3.509-24.563 10.527l-54.39 54.39c-14.036 14.036-14.036 35.090 0 49.126s35.090 14.036 49.126 0l54.39-54.39c14.036-14.036 14.036-35.090 0-49.126-7.018-7.018-15.791-10.527-24.563-10.527z" />
<glyph unicode="&#xe91d;" glyph-name="rain" d="M740.087 277.534h-456.174c-5.264 0-12.282 1.755-19.3 5.264-84.217 14.036-138.607 84.217-138.607 182.47 0 101.762 87.726 185.979 194.751 185.979 10.527 0 22.809-1.755 33.336-3.509 15.791 103.517 100.007 182.47 203.524 182.47 114.044 0 205.278-96.498 205.278-215.806 0-5.264 0-10.527 0-14.036 40.354-7.018 77.199-31.581 100.007-64.917 22.809-29.827 35.090-64.917 35.090-101.762 0-77.199-59.654-138.607-142.116-149.134-3.509-5.264-8.773-7.018-15.791-7.018zM297.949 347.714h429.857c3.509 1.755 5.264 1.755 7.018 1.755h5.264c43.863 1.755 87.726 29.827 87.726 80.708 0 21.054-7.018 42.108-21.054 59.654l-1.755 1.755c-15.791 24.563-42.108 38.599-71.935 38.599-3.509 0-5.264 0-7.018 0l-49.126-5.264 12.282 47.372c3.509 12.282 5.264 24.563 5.264 38.599 0 80.708-61.408 145.625-135.098 145.625s-135.098-64.917-135.098-145.625c0-3.509 0-7.018 0-8.773l3.509-56.145-52.636 22.809c-15.791 7.018-33.336 10.527-52.636 10.527-68.426 0-124.571-50.881-124.571-115.798 0-24.563 7.018-107.026 85.971-114.044h5.264l5.264-1.755c1.755 1.755 1.755 0 3.509 0zM585.69 23.129c-7.018 0-14.036 1.755-21.054 7.018-15.791 12.282-19.3 33.336-7.018 49.126l108.78 147.379c12.282 15.791 33.336 19.3 49.126 7.018s19.3-33.336 7.018-49.126l-108.78-147.379c-7.018-8.773-17.545-14.036-28.072-14.036zM404.975 23.129c-7.018 0-14.036 1.755-21.054 7.018-15.791 12.282-19.3 33.336-7.018 49.126l108.78 147.379c12.282 15.791 33.336 19.3 49.126 7.018s19.3-33.336 7.018-49.126l-108.78-147.379c-5.264-8.773-15.791-14.036-28.072-14.036zM226.014 23.129c-7.018 0-14.036 1.755-21.054 7.018-15.791 12.282-19.3 33.336-7.018 49.126l108.78 147.379c12.282 15.791 33.336 19.3 49.126 7.018s19.3-33.336 7.018-49.126l-108.78-147.379c-7.018-8.773-17.545-14.036-28.072-14.036z" />
<glyph unicode="&#xe91e;" glyph-name="pin" d="M736.578 321.396c-7.018 0-14.036 1.755-21.054 7.018-15.791 12.282-17.545 33.336-7.018 49.126 31.581 42.108 49.126 91.235 49.126 142.116 0 131.589-110.535 238.614-245.632 238.614-19.3 0-35.090 15.791-35.090 35.090s15.791 35.090 35.090 35.090c173.697 0 315.813-138.607 315.813-308.795 0-66.672-21.054-131.589-63.163-185.979-7.018-7.018-17.545-12.282-28.072-12.282zM512 398.594c-68.426 0-122.816 54.39-122.816 122.816s54.39 122.816 122.816 122.816c68.426 0 122.816-54.39 122.816-122.816s-54.39-122.816-122.816-122.816zM512 574.046c-29.827 0-52.636-22.809-52.636-52.636s22.809-52.636 52.636-52.636c29.827 0 52.636 22.809 52.636 52.636s-22.809 52.636-52.636 52.636zM512 23.128c-7.018 0-14.036 1.755-21.054 7.018-15.791 12.282-19.3 33.336-7.018 49.126l224.578 298.268c12.282 15.791 33.336 19.3 49.126 7.018s19.3-33.336 7.018-49.126l-224.578-298.268c-7.018-8.773-17.545-14.036-28.072-14.036zM287.422 321.396c-10.527 0-21.054 5.264-28.072 14.036-40.354 54.39-63.163 117.553-63.163 185.979 0 170.188 142.116 308.795 315.813 308.795 19.3 0 35.090-15.791 35.090-35.090s-15.791-35.090-35.090-35.090c-135.098 0-245.632-107.026-245.632-238.614 0-52.636 17.545-101.762 49.126-142.116 12.282-15.791 8.773-36.845-7.018-49.126-7.018-5.264-14.036-8.773-21.054-8.773zM512 23.128c-10.527 0-21.054 5.264-28.072 14.036l-224.578 298.268c-12.282 15.791-8.773 36.845 7.018 49.126s36.845 8.773 49.126-7.018l224.578-298.268c12.282-15.791 8.773-36.845-7.018-49.126-7.018-5.264-14.036-7.018-21.054-7.018z" />
<glyph unicode="&#xe91f;" glyph-name="flag" d="M494.455 409.122h-298.268c-19.3 0-35.090 15.791-35.090 35.090v333.358c0 29.827 22.809 52.636 52.636 52.636h280.723c29.827 0 52.636-22.809 52.636-52.636v-315.813c0-29.827-22.809-52.636-52.636-52.636zM231.277 479.302h245.632v280.723h-245.632zM810.268 338.941h-280.723c-29.827 0-52.636 22.809-52.636 52.636v333.358c0 19.3 15.791 35.090 35.090 35.090h298.268c29.827 0 52.636-22.809 52.636-52.636v-315.813c0-29.827-22.809-52.636-52.636-52.636zM547.090 409.122h245.632v280.723h-245.632zM196.187 23.128c-19.3 0-35.090 15.791-35.090 35.090v385.994c0 19.3 15.791 35.090 35.090 35.090s35.090-15.791 35.090-35.090v-385.994c0-19.3-15.791-35.090-35.090-35.090z" />
<glyph unicode="&#xe920;" glyph-name="misc" d="M406.728 426.667c0-19.38-15.71-35.090-35.090-35.090s-35.090 15.71-35.090 35.090c0 19.38 15.71 35.090 35.090 35.090s35.090-15.71 35.090-35.090zM547.089 426.667c0-19.38-15.71-35.090-35.090-35.090s-35.090 15.71-35.090 35.090c0 19.38 15.71 35.090 35.090 35.090s35.090-15.71 35.090-35.090zM687.451 426.667c0-19.38-15.71-35.090-35.090-35.090s-35.090 15.71-35.090 35.090c0 19.38 15.71 35.090 35.090 35.090s35.090-15.71 35.090-35.090z" />
<glyph unicode="&#xe921;" glyph-name="wallet" d="M862.902 58.218h-701.807c-29.827 0-52.636 22.809-52.636 52.636v631.626c0 29.827 22.809 52.636 52.636 52.636h701.807c29.827 0 52.636-22.809 52.636-52.636v-631.626c0-29.827-22.809-52.636-52.636-52.636zM178.641 128.399h666.716v596.536h-666.716zM880.448 237.179h-105.271c-115.798 0-210.542 80.708-210.542 178.961v28.072c0 98.253 94.744 178.961 210.542 178.961h105.271c19.3 0 35.090-15.791 35.090-35.090s-15.791-35.090-35.090-35.090h-105.271c-77.199 0-140.361-49.126-140.361-108.78v-28.072c0-59.654 63.163-108.78 140.361-108.78h105.271c19.3 0 35.090-15.791 35.090-35.090s-15.791-35.090-35.090-35.090zM757.631 377.54c-29.827 0-52.636 22.809-52.636 52.636s22.809 52.636 52.636 52.636c29.827 0 52.636-22.809 52.636-52.636s-22.809-52.636-52.636-52.636zM757.631 447.721c-10.527 0-17.545-7.018-17.545-17.545s7.018-17.545 17.545-17.545c10.527 0 17.545 7.018 17.545 17.545s-7.018 17.545-17.545 17.545z" />
<glyph unicode="&#xe922;" glyph-name="gear" d="M870.951 533.334l-38.4-25.6c4.267-25.6 8.533-51.2 8.533-76.8 0-29.867-4.267-55.467-8.533-81.067l34.133-25.6c8.533-8.533 21.333-21.333 21.333-34.133s0-25.6-8.533-38.4l-81.067-115.2c-8.533-8.533-21.333-21.333-34.133-21.333-12.8-4.267-29.867 0-38.4 8.533l-34.133 25.6c-21.333-12.8-38.4-21.333-55.467-29.867v-42.667c0-21.333-21.333-64-55.467-64h-136.533c-34.133 0-55.467 42.667-55.467 64v42.667c-21.333 8.533-38.4 17.067-55.467 29.867l-34.133-21.333c-12.8-8.533-25.6-12.8-38.4-8.533-12.8 0-25.6 8.533-34.133 21.333l-81.067 110.933c-8.533 12.8-8.533 25.6-8.533 38.4s8.533 25.6 21.333 34.133l34.133 25.6c-8.533 25.6-8.533 51.2-8.533 81.067 0 25.6 4.267 51.2 8.533 76.8l-42.667 25.6c-21.333 17.067-29.867 51.2-8.533 76.8l81.067 115.2c8.533 12.8 21.333 21.333 34.133 21.333s29.867 0 38.4-8.533l38.4-25.6c21.333 12.8 38.4 25.6 59.733 34.133v34.133c0 21.333 21.333 59.733 55.467 59.733h132.267c34.133 0 55.467-38.4 55.467-59.733v-38.4c21.333-8.533 38.4-17.067 59.733-34.133l38.4 25.6c8.533 8.533 25.6 8.533 38.4 8.533s25.6-8.533 34.133-21.333l81.067-115.2c12.8-21.333 8.533-55.467-17.067-72.533zM760.017 669.867l-64-46.933-21.333 17.067c-29.867 21.333-55.467 38.4-85.333 46.933l-25.6 8.533v76.8h-102.4v-81.067l-25.6-4.267c-29.867-8.533-55.467-25.6-85.333-46.933l-21.333-17.067-64 46.933-59.733-85.333 68.267-46.933-8.533-25.6c-8.533-25.6-12.8-51.2-12.8-81.067s4.267-55.467 12.8-85.333l8.533-25.6-59.733-42.667 59.733-85.333 59.733 42.667 21.333-17.067c29.867-21.333 51.2-34.133 81.067-42.667l25.6-8.533v-85.333h102.4v85.333l25.6 8.533c25.6 8.533 51.2 21.333 81.067 42.667l21.333 17.067 59.733-42.667 59.733 85.333-59.733 42.667 8.533 25.6c8.533 29.867 12.8 55.467 12.8 85.333 0 25.6-4.267 51.2-12.8 81.067l-8.533 25.6 68.267 46.933zM512.551 281.6c-76.8 0-140.8 64-140.8 140.8s64 140.8 140.8 140.8c76.8 0 140.8-64 140.8-140.8s-64-140.8-140.8-140.8zM512.551 494.934c-38.4 0-68.267-29.867-68.267-68.267s29.867-68.267 68.267-68.267c38.4 0 68.267 29.867 68.267 68.267 4.267 34.133-29.867 68.267-68.267 68.267z" />
<glyph unicode="&#xe923;" glyph-name="minus" d="M827.812 58.219h-631.625c-29.827 0-52.635 22.809-52.635 52.635v631.625c0 29.827 22.809 52.635 52.635 52.635h631.625c29.827 0 52.635-22.809 52.635-52.635v-631.625c0-29.827-22.809-52.635-52.635-52.635zM213.732 128.399h596.535v596.535h-596.535zM652.361 391.576h-280.722c-19.3 0-35.090 15.791-35.090 35.090s15.791 35.090 35.090 35.090h280.722c19.3 0 35.090-15.791 35.090-35.090s-15.791-35.090-35.090-35.090z" />
<glyph unicode="&#xe924;" glyph-name="plus" d="M827.812 58.218h-631.626c-29.827 0-52.636 22.809-52.636 52.636v631.626c0 29.827 22.809 52.636 52.636 52.636h631.626c29.827 0 52.636-22.809 52.636-52.636v-631.626c0-29.827-22.809-52.636-52.636-52.636zM213.731 128.399h596.536v596.536h-596.536zM511.999 251.215c-19.3 0-35.090 15.791-35.090 35.090v289.495c0 19.3 15.791 35.090 35.090 35.090s35.090-15.791 35.090-35.090v-289.495c0-19.3-15.791-35.090-35.090-35.090zM652.36 391.576h-280.723c-19.3 0-35.090 15.791-35.090 35.090s15.791 35.090 35.090 35.090h280.723c19.3 0 35.090-15.791 35.090-35.090s-15.791-35.090-35.090-35.090z" />
<glyph unicode="&#xe925;" glyph-name="hamburger" d="M810.268 584.574h-596.536c-19.3 0-35.090 15.791-35.090 35.090s15.791 35.090 35.090 35.090h596.536c19.3 0 35.090-15.791 35.090-35.090s-15.791-35.090-35.090-35.090zM810.268 391.577h-596.536c-19.3 0-35.090 15.791-35.090 35.090s15.791 35.090 35.090 35.090h596.536c19.3 0 35.090-15.791 35.090-35.090s-15.791-35.090-35.090-35.090zM810.268 198.58h-596.536c-19.3 0-35.090 15.791-35.090 35.090s15.791 35.090 35.090 35.090h596.536c19.3 0 35.090-15.791 35.090-35.090s-15.791-35.090-35.090-35.090z" />
<glyph unicode="&#xe926;" glyph-name="ok" d="M512 58.219c-203.524 0-368.449 164.925-368.449 368.449s164.925 368.449 368.449 368.449c203.524 0 368.449-164.925 368.449-368.449s-166.679-368.449-368.449-368.449zM512 724.935c-164.925 0-298.268-133.343-298.268-298.268s133.343-298.268 298.268-298.268c164.925 0 298.268 133.343 298.268 298.268s-133.343 298.268-298.268 298.268zM468.137 305.606c-8.773 0-17.545 3.509-24.563 10.527l-94.744 96.498c-14.036 14.036-14.036 36.845 0 49.126 14.036 14.036 36.845 14.036 49.126 0l70.181-71.935 161.416 152.643c14.036 14.036 36.845 12.282 49.126-1.755 14.036-14.036 12.282-36.845-1.755-49.126l-185.979-175.452c-5.264-7.018-14.036-10.527-22.809-10.527z" />
<glyph unicode="&#xe927;" glyph-name="mail" d="M883.96 91.556h-742.16c-29.827 0-50.881 26.318-50.881 64.917v556.181c0 7.018-1.755 21.054 8.773 33.336l12.282 15.791 17.545-1.755c3.509 0 8.773 0 12.282-1.755h740.405c45.617 0 50.881-33.336 50.881-47.372v-556.181c1.755-36.845-19.3-63.163-49.126-63.163zM162.855 161.737h701.806v526.354h-701.806zM97.938 709.146c0 0 0 0 0 0zM162.855 737.218v0c0 0 0 0 0 0zM515.512 356.488c-40.354 0-78.953 14.036-110.534 42.108l-305.286 298.267 50.881 50.881 303.531-298.267c33.336-31.581 87.726-31.581 121.062 1.755l300.022 294.758 50.881-50.881-300.022-294.758c-29.827-28.072-70.181-43.863-110.534-43.863zM625.726 458.454l57.8 42.816 247.496-334.111-57.8-42.816-247.496 334.111zM96.215 167.32l251.797 333.099 57.383-43.377-251.797-333.099-57.383 43.377z" />
<glyph unicode="&#xe928;" glyph-name="upload" d="M827.812 58.219h-631.626c-19.3 0-35.090 15.791-35.090 35.090v175.452c0 19.3 15.791 35.090 35.090 35.090s35.090-15.791 35.090-35.090v-140.361h561.445v140.361c0 19.3 15.791 35.090 35.090 35.090s35.090-15.791 35.090-35.090v-175.452c0-19.3-15.791-35.090-35.090-35.090zM512.23 795.116c5.264 0 8.773-1.755 14.036-3.509 12.282-5.264 21.054-17.545 21.054-31.581l-1.755-487.756c0-19.3-15.791-29.827-35.090-29.827 0 0 0 0 0 0-19.3 0-35.090 12.282-35.090 31.581l1.755 407.048-178.961-171.943c-14.036-14.036-36.845-14.036-49.126 0s-12.282 35.090 1.755 49.126l238.614 228.087c5.264 5.264 14.036 8.773 22.809 8.773zM512.23 795.116c8.773 0 17.545-3.509 24.563-10.527l235.105-228.087c14.036-14.036 14.036-35.090 0-49.126s-35.090-14.036-49.126 0l-235.105 228.087c-14.036 14.036-14.036 35.090 0 49.126 7.018 7.018 15.791 10.527 24.563 10.527z" />
<glyph unicode="&#xe929;" glyph-name="download" d="M827.812 58.219h-631.626c-19.3 0-35.090 15.791-35.090 35.090v175.452c0 19.3 15.791 35.090 35.090 35.090s35.090-15.791 35.090-35.090v-140.361h561.445v140.361c0 19.3 15.791 35.090 35.090 35.090s35.090-15.791 35.090-35.090v-175.452c0-19.3-15.791-35.090-35.090-35.090zM510.245 242.443c-5.264 0-8.773 1.755-14.036 3.509-12.282 5.264-21.054 17.545-21.054 31.581l1.755 487.756c0 19.3 15.791 29.827 35.090 29.827 0 0 0 0 0 0 19.3 0 35.090-12.282 35.090-31.581l-1.755-407.048 178.961 171.943c14.036 14.036 36.845 14.036 49.126 0s12.282-35.090-1.755-49.126l-238.614-228.087c-5.264-5.264-14.036-8.773-22.809-8.773zM510.245 242.443c-8.773 0-17.545 3.509-24.563 10.527l-235.105 228.087c-14.036 14.036-14.036 35.090 0 49.126s35.090 14.036 49.126 0l235.105-228.087c14.036-14.036 14.036-35.090 0-49.126-7.018-7.018-15.791-10.527-24.563-10.527z" />
<glyph unicode="&#xe92a;" glyph-name="file" d="M793.6 24.006h-568.464c-28.072 0-49.126 22.809-49.126 49.126v712.334c0 24.563 19.3 43.863 43.863 43.863h350.903c19.3 0 35.090-15.791 35.090-35.090s-15.791-35.090-35.090-35.090h-326.34v-666.716h533.373v475.474c0 19.3 15.791 35.090 35.090 35.090s35.090-15.791 35.090-35.090v-491.265c0-28.072-24.563-52.636-54.39-52.636zM591.83 532.816c-12.282 0-22.809 7.018-31.581 14.036-8.773 8.773-14.036 24.563-14.036 40.354v191.242h35.090l-35.090 1.755c0 7.018 0 31.581 22.809 40.354 8.773 3.509 24.563 7.018 43.863-8.773l214.051-200.015c14.036-12.282 17.545-29.827 12.282-45.617s-21.054-28.072-40.354-28.072l-207.033-5.264c0 0 0 0 0 0zM777.809 559.133c0 0 0 0 0 0zM616.394 710.022v-101.762h108.78z" />
<glyph unicode="&#xe92b;" glyph-name="link" d="M398.832 92.432c-57.899 0-112.289 22.809-152.643 63.163-85.971 84.217-85.971 222.824-1.755 308.795l43.863 45.617c14.036 14.036 35.090 14.036 49.126 0s14.036-35.090 0-49.126l-43.863-45.617c-57.899-57.899-56.145-152.643 1.755-210.542 28.072-28.072 64.917-43.863 103.517-43.863 0 0 0 0 1.755 0 38.599 0 77.199 15.791 103.517 43.863l43.863 45.617c14.036 14.036 35.090 14.036 49.126 0s14.036-35.090 0-49.126l-43.863-45.617c-40.354-38.599-96.498-63.163-154.397-63.163 0 0 0 0 0 0zM707.627 331.046c-8.773 0-17.545 3.509-24.563 10.527-14.036 14.036-14.036 35.090 0 49.126l43.863 45.617c57.899 57.899 56.145 152.643-1.755 210.542-28.072 28.072-64.917 43.863-103.517 43.863 0 0 0 0 0 0-38.599 0-77.199-15.791-103.517-43.863l-43.863-45.617c-14.036-14.036-35.090-14.036-49.126 0s-14.036 35.090 0 49.126l43.863 45.617c40.354 42.108 94.744 64.917 154.397 64.917 0 0 0 0 1.755 0 57.899 0 112.289-22.809 152.643-63.163 85.971-84.217 85.971-222.824 1.755-308.795l-43.863-45.617c-10.527-8.773-19.3-12.282-28.072-12.282zM423.396 302.974c-8.773 0-17.545 3.509-24.563 10.527-14.036 14.036-14.036 35.090 0 49.126l171.943 173.697c14.036 14.036 35.090 14.036 49.126 0s14.036-35.090 0-49.126l-171.943-173.697c-5.264-7.018-15.791-10.527-24.563-10.527z" />
<glyph unicode="&#xe92c;" glyph-name="message" d="M861.867 204.8h-209.067l-106.667-128c0-4.267-4.267-12.8-12.8-17.067-4.267 0-4.267-4.267-8.533-4.267 0 0 0 0 0 0-4.267 0-8.533-4.267-12.8-4.267 0 0 0 0 0 0v0c0 0 0 0 0 0s0 0 0 0c-4.267 0-8.533 0-12.8 4.267 0 0-4.267 0-4.267 4.267 0 0-4.267 0-4.267 4.267 0 0 0 0 0 4.267 0 0 0 0 0 0l-115.2 140.8h-213.333c-29.867 0-51.2 29.867-51.2 59.733v473.6c0 29.867 21.333 59.733 51.2 59.733h699.733c29.867 0 51.2-29.867 51.2-59.733v-477.867c4.267-29.867-17.067-59.733-51.2-59.733zM844.8 729.6h-665.6v-456.533h209.067c12.8 0 21.333-4.267 25.6-12.8 0 0 0 0 0 0l98.133-115.2 98.133 115.2c0 0 4.267 4.267 4.267 4.267s0 0 0 0 4.267 4.267 4.267 4.267 8.533 4.267 17.067 4.267h204.8v456.533zM512 51.2c0 0 0 0 0 0s0 0 0 0v0z" />
<glyph unicode="&#xe92d;" glyph-name="mic" d="M529.545 303.852h-35.090c-77.199 0-140.361 63.163-140.361 140.361v245.632c0 77.199 63.163 140.361 140.361 140.361h35.090c77.199 0 140.361-63.163 140.361-140.361v-245.632c0-77.199-63.163-140.361-140.361-140.361zM494.455 760.026c-38.599 0-70.181-31.581-70.181-70.181v-245.632c0-38.599 31.581-70.181 70.181-70.181h35.090c38.599 0 70.181 31.581 70.181 70.181v245.632c0 38.599-31.581 70.181-70.181 70.181zM512 181.036c-154.397 0-280.723 110.535-280.723 245.632 0 19.3 15.791 35.090 35.090 35.090s35.090-15.791 35.090-35.090c0-96.498 94.744-175.452 210.542-175.452s210.542 78.953 210.542 175.452c0 19.3 15.791 35.090 35.090 35.090s35.090-15.791 35.090-35.090c0-135.098-126.325-245.632-280.723-245.632zM512 23.129c-19.3 0-35.090 15.791-35.090 35.090v140.361c0 19.3 15.791 35.090 35.090 35.090s35.090-15.791 35.090-35.090v-140.361c0-19.3-15.791-35.090-35.090-35.090zM687.452 23.129h-350.903c-19.3 0-35.090 15.791-35.090 35.090s15.791 35.090 35.090 35.090h350.903c19.3 0 35.090-15.791 35.090-35.090s-15.791-35.090-35.090-35.090z" />
<glyph unicode="&#xe92e;" glyph-name="battery" d="M755.878 198.581h-596.536c-29.827 0-52.636 22.809-52.636 52.636v350.903c0 29.827 22.809 52.636 52.636 52.636h596.536c29.827 0 52.636-22.809 52.636-52.636v-350.903c0-29.827-24.563-52.636-52.636-52.636zM176.887 268.761h561.445v315.813h-561.445zM847.113 293.325h-35.090c-38.599 0-70.181 31.581-70.181 70.181v105.271c0 38.599 31.581 70.181 70.181 70.181h35.090c38.599 0 70.181-31.581 70.181-70.181v-105.271c0-38.599-31.581-70.181-70.181-70.181zM812.022 468.776v-105.271h35.090v105.271zM624.289 223.144c-19.3 0-35.090 15.791-35.090 35.090v315.813c0 19.3 15.791 35.090 35.090 35.090s35.090-15.791 35.090-35.090v-315.813c0-19.3-15.791-35.090-35.090-35.090z" />
<glyph unicode="&#xe92f;" glyph-name="shopping" d="M765.444 14.709h-510.566c-35.090 0-49.127 42.109-52.636 56.145l-114.044 426.349c-3.509 15.791-1.755 31.581 7.018 43.863s22.809 19.3 40.354 19.3h750.936c7.018 0 28.072 0 42.109-17.545 5.264-7.018 12.282-21.054 7.018-40.354l-114.044-433.367c-10.527-28.072-29.827-54.39-56.145-54.39zM268.913 84.89h480.739l107.026 403.54h-696.546l107.026-400.031c1.755-1.755 1.755-1.755 1.755-3.509zM860.188 518.258c0 0 0 0 0 0zM198.732 505.976c-7.018 0-15.791 1.755-22.809 7.018-15.791 12.282-17.545 35.090-5.264 49.127l210.543 263.179c12.282 15.791 35.090 17.545 49.127 5.264 15.791-12.282 17.545-35.090 5.264-49.127l-210.543-263.179c-7.018-8.773-15.791-12.282-26.318-12.282zM816.325 505.976c-10.527 0-21.054 5.264-28.072 14.036l-203.525 261.424c-12.282 15.791-8.773 36.845 5.264 49.127 15.791 12.282 36.845 8.773 49.127-5.264l203.525-261.424c12.282-15.791 8.773-36.845-5.264-49.127-5.264-7.018-14.036-8.773-21.054-8.773zM351.376 190.162c-19.3 0-35.090 15.791-35.090 35.090v140.362c0 19.3 15.791 35.090 35.090 35.090s35.090-15.791 35.090-35.090v-140.362c0-19.3-15.791-35.090-35.090-35.090zM667.19 190.162c-19.3 0-35.090 15.791-35.090 35.090v140.362c0 19.3 15.791 35.090 35.090 35.090s35.090-15.791 35.090-35.090v-140.362c0-19.3-15.791-35.090-35.090-35.090zM509.283 190.162c-19.3 0-35.090 15.791-35.090 35.090v140.362c0 19.3 15.791 35.090 35.090 35.090s35.090-15.791 35.090-35.090v-140.362c0-19.3-15.791-35.090-35.090-35.090z" />
<glyph unicode="&#xe930;" glyph-name="clock" d="M511.999 58.219c-203.524 0-368.449 164.925-368.449 368.449s164.925 368.449 368.449 368.449c203.524 0 368.449-164.925 368.449-368.449s-164.925-368.449-368.449-368.449zM511.999 724.936c-164.925 0-298.268-133.343-298.268-298.268s133.343-298.268 298.268-298.268c164.925 0 298.268 133.343 298.268 298.268s-133.343 298.268-298.268 298.268zM587.444 314.379c-7.018 0-14.036 1.755-19.3 7.018l-92.989 64.917c-8.773 7.018-15.791 17.545-15.791 28.072v161.416c0 19.3 15.791 35.090 35.090 35.090s35.090-15.791 35.090-35.090v-143.87l78.953-54.39c15.791-10.527 19.3-33.336 8.773-49.126-7.018-8.773-17.545-14.036-29.827-14.036z" />
<glyph unicode="&#xe931;" glyph-name="expand" d="M857.799 44.899c-19.3 0-35.090 15.791-35.090 35.090v228.087c0 19.3 15.791 35.090 35.090 35.090s35.090-15.791 35.090-35.090v-228.087c0-19.3-15.791-35.090-35.090-35.090zM857.799 44.899h-228.087c-19.3 0-35.090 15.791-35.090 35.090s15.791 35.090 35.090 35.090h228.087c19.3 0 35.090-15.791 35.090-35.090s-15.791-35.090-35.090-35.090zM849.027 55.427c-8.773 0-17.545 3.509-24.563 10.527l-256.159 256.159c-14.036 14.036-14.036 35.090 0 49.126s35.090 14.036 49.126 0l256.159-256.159c14.036-14.036 14.036-35.090 0-49.126-5.264-7.018-15.791-10.527-24.563-10.527zM166.201 808.434c19.3 0 35.090-15.791 35.090-35.090v-228.087c0-19.3-15.791-35.090-35.090-35.090s-35.090 15.791-35.090 35.090v228.087c0 19.3 15.791 35.090 35.090 35.090zM166.201 808.434h228.087c19.3 0 35.090-15.791 35.090-35.090s-15.791-35.090-35.090-35.090h-228.087c-19.3 0-35.090 15.791-35.090 35.090s15.791 35.090 35.090 35.090zM174.973 797.907c8.773 0 17.545-3.509 24.563-10.527l256.159-256.159c14.036-14.036 14.036-35.090 0-49.126s-35.090-14.036-49.126 0l-256.159 256.159c-14.036 14.036-14.036 35.090 0 49.126 5.264 7.018 15.791 10.527 24.563 10.527zM893.767 772.466c0-19.3-15.791-35.090-35.090-35.090h-228.087c-19.3 0-35.090 15.791-35.090 35.090s15.791 35.090 35.090 35.090h228.087c19.3 0 35.090-15.791 35.090-35.090zM893.767 772.466v-228.087c0-19.3-15.791-35.090-35.090-35.090s-35.090 15.791-35.090 35.090v228.087c0 19.3 15.791 35.090 35.090 35.090s35.090-15.791 35.090-35.090zM883.24 763.693c0-8.773-3.509-17.545-10.527-24.563l-256.159-256.159c-14.036-14.036-35.090-14.036-49.126 0s-14.036 35.090 0 49.126l256.159 256.159c14.036 14.036 35.090 14.036 49.126 0 7.018-5.264 10.527-15.791 10.527-24.563zM130.233 80.867c0 19.3 15.791 35.090 35.090 35.090h228.087c19.3 0 35.090-15.791 35.090-35.090s-15.791-35.090-35.090-35.090h-228.087c-19.3 0-35.090 15.791-35.090 35.090zM130.233 80.867v228.087c0 19.3 15.791 35.090 35.090 35.090s35.090-15.791 35.090-35.090v-228.087c0-19.3-15.791-35.090-35.090-35.090s-35.090 15.791-35.090 35.090zM140.76 89.64c0 8.773 3.509 17.545 10.527 24.563l256.159 256.159c14.036 14.036 35.090 14.036 49.126 0s14.036-35.090 0-49.126l-256.159-256.159c-14.036-14.036-35.090-14.036-49.126 0-7.018 5.264-10.527 15.791-10.527 24.563z" />
<glyph unicode="&#xe932;" glyph-name="calendar" d="M827.812 58.219h-631.626c-29.827 0-52.636 22.809-52.636 52.636v561.445c0 29.827 22.809 52.636 52.636 52.636h631.626c29.827 0 52.636-22.809 52.636-52.636v-561.445c0-29.827-22.809-52.636-52.636-52.636zM213.731 128.4h596.536v526.355h-596.536zM827.812 479.303h-631.626c-19.3 0-35.090 15.791-35.090 35.090s15.791 35.090 35.090 35.090h631.626c19.3 0 35.090-15.791 35.090-35.090s-15.791-35.090-35.090-35.090zM336.547 584.575c-19.3 0-35.090 15.791-35.090 35.090v140.361c0 19.3 15.791 35.090 35.090 35.090s35.090-15.791 35.090-35.090v-140.361c0-19.3-15.791-35.090-35.090-35.090zM687.45 584.575c-19.3 0-35.090 15.791-35.090 35.090v140.361c0 19.3 15.791 35.090 35.090 35.090s35.090-15.791 35.090-35.090v-140.361c0-19.3-15.791-35.090-35.090-35.090zM471.645 191.563c-8.773 0-17.545 3.509-24.563 10.527l-94.744 96.498c-14.036 14.036-14.036 36.845 0 49.126 14.036 14.036 36.845 14.036 49.126 0l70.181-71.935 161.416 152.643c14.036 14.036 36.845 12.282 49.126-1.755 14.036-14.036 12.282-36.845-1.755-49.126l-185.979-175.452c-5.264-7.018-14.036-10.527-22.809-10.527z" />
<glyph unicode="&#xe933;" glyph-name="dustbox" d="M694.47 5.584h-345.64c-84.217 0-150.888 75.444-150.888 166.679v480.738c0 28.072 14.036 42.108 26.318 47.372 12.282 7.018 26.318 5.264 36.845 7.018h505.301c12.282 0 26.318 0 38.599-7.018 12.282-5.264 26.318-19.3 26.318-47.372v-498.283c-3.509-82.462-63.163-149.134-136.852-149.134zM266.368 637.21v-464.947c0-47.372 33.336-96.498 80.708-96.498h345.64c38.599 0 63.163 40.354 63.163 78.953v482.492zM845.358 637.21h-666.716c-19.3 0-35.090 15.791-35.090 35.090s15.791 35.090 35.090 35.090h666.716c19.3 0 35.090-15.791 35.090-35.090s-15.791-35.090-35.090-35.090zM617.271 654.755h-210.542c-29.827 0-52.636 22.809-52.636 52.636v87.726c0 29.827 22.809 52.636 52.636 52.636h210.542c29.827 0 52.636-22.809 52.636-52.636v-87.726c0-29.827-22.809-52.636-52.636-52.636zM424.274 724.936h175.452v52.636h-175.452zM371.639 163.491c-19.3 0-35.090 15.791-35.090 35.090v315.813c0 19.3 15.791 35.090 35.090 35.090s35.090-15.791 35.090-35.090v-315.813c0-19.3-15.791-35.090-35.090-35.090zM512 163.491c-19.3 0-35.090 15.791-35.090 35.090v315.813c0 19.3 15.791 35.090 35.090 35.090s35.090-15.791 35.090-35.090v-315.813c0-19.3-15.791-35.090-35.090-35.090zM652.361 163.491c-19.3 0-35.090 15.791-35.090 35.090v315.813c0 19.3 15.791 35.090 35.090 35.090s35.090-15.791 35.090-35.090v-315.813c0-19.3-15.791-35.090-35.090-35.090z" />
<glyph unicode="&#xe934;" glyph-name="bookmark-add" d="M739.92 29.224c-19.3 0-35.090 15.791-35.090 35.090 0 14.036 7.018 24.563 19.3 31.581v663.208h-421.085v-664.963c10.527-5.264 19.3-17.545 19.3-31.581 0-19.3-15.791-35.090-35.090-35.090-29.827 0-54.39 22.809-54.39 52.636v707.071c0 15.791 8.773 26.318 12.282 31.581 14.036 12.282 29.827 10.527 36.845 10.527 1.755 0 1.755 0 3.509 0h452.666c1.755 0 3.509 0 3.509 0 7.018 0 22.809 1.755 36.845-10.527 5.264-5.264 12.282-14.036 12.282-31.581v-707.071c3.509-28.072-21.054-50.881-50.881-50.881zM287.254 23.961c-10.527 0-21.054 5.264-28.072 14.036-12.282 15.791-8.773 36.845 5.264 49.127l222.824 177.206c15.791 12.282 36.845 8.773 49.127-5.264s8.773-36.845-5.264-49.127l-222.824-177.206c-5.264-7.018-14.036-8.773-21.054-8.773zM739.92 23.961c-7.018 0-15.791 1.755-21.054 7.018l-222.824 177.206c-15.791 12.282-17.545 33.336-5.264 49.127s33.336 17.545 49.127 5.264l222.824-177.206c15.791-12.282 17.545-33.336 5.264-49.127-7.018-7.018-17.545-12.282-28.072-12.282zM513.587 408.201c-19.3 0-35.090 15.791-35.090 35.090v185.979c0 19.3 15.791 35.090 35.090 35.090s35.090-15.791 35.090-35.090v-185.979c0-19.3-15.791-35.090-35.090-35.090zM608.331 495.927h-182.47c-19.3 0-35.090 15.791-35.090 35.090s15.791 35.090 35.090 35.090h182.47c19.3 0 35.090-15.791 35.090-35.090s-15.791-35.090-35.090-35.090z" />
<glyph unicode="&#xe935;" glyph-name="bookmark-remove" d="M739.166 31.025c-19.3 0-35.090 15.791-35.090 35.090 0 14.036 7.018 24.563 19.3 31.581v657.944h-421.084v-657.944c10.527-5.264 19.3-17.545 19.3-31.581 0-19.3-15.791-35.090-35.090-35.090-29.827 0-54.39 22.809-54.39 52.636v698.298c0 12.282 5.264 22.809 12.282 31.581 12.282 12.282 29.827 12.282 38.599 12.282h457.929c10.527 0 26.318 0 38.599-12.282 8.773-8.773 12.282-19.3 12.282-31.581v-698.298c1.755-28.072-22.809-52.636-52.636-52.636zM286.501 27.516c-10.527 0-21.054 5.264-28.072 14.036-12.282 15.791-8.773 36.845 5.264 49.126l222.824 173.697c15.791 12.282 36.845 8.773 49.126-5.264 12.282-15.791 8.773-36.845-5.264-49.126l-222.824-173.697c-7.018-7.018-14.036-8.773-21.054-8.773zM739.166 27.516c-7.018 0-15.791 1.755-21.054 7.018l-222.824 173.697c-15.791 12.282-17.545 33.336-5.264 49.126s33.336 17.545 49.126 5.264l222.824-173.697c15.791-12.282 17.545-33.336 5.264-49.126-7.018-7.018-17.545-12.282-28.072-12.282zM607.577 492.463h-182.47c-19.3 0-35.090 15.791-35.090 35.090s15.791 35.090 35.090 35.090h182.47c19.3 0 35.090-15.791 35.090-35.090s-15.791-35.090-35.090-35.090z" />
<glyph unicode="&#xe936;" glyph-name="indent" d="M810.267 575.802h-596.536c-19.3 0-35.090 15.791-35.090 35.090s15.791 35.090 35.090 35.090h596.536c19.3 0 35.090-15.791 35.090-35.090s-15.791-35.090-35.090-35.090zM564.635 382.805v0l-340.376 3.509c-19.3 0-35.090 14.036-35.090 33.336s15.791 33.336 35.090 33.336v0l340.376 1.755c19.3 0 35.090-15.791 35.090-35.090 0-21.054-15.791-36.845-35.090-36.845zM792.722 207.354h-561.445c-19.3 0-35.090 15.791-35.090 35.090s15.791 35.090 35.090 35.090h561.445c19.3 0 35.090-15.791 35.090-35.090s-15.791-35.090-35.090-35.090z" />
<glyph unicode="&#xe937;" glyph-name="device" d="M738.332 23.129h-452.665c-33.336 0-54.39 36.845-54.39 61.408v700.052c0 12.282 5.264 22.809 12.282 31.581 14.036 14.036 31.581 14.036 40.354 14.036h454.42c12.282 0 28.072 0 42.108-14.036 5.264-5.264 12.282-15.791 12.282-31.581v-700.052c0-24.563-19.3-61.408-54.39-61.408zM301.457 93.31h421.084v666.716h-421.084zM266.367 303.852h491.265v-70.181h-491.265v70.181zM266.367 707.391h491.265v-70.181h-491.265v70.181zM510.245 210.863c-21.054 0-36.845-15.791-36.845-35.090s17.545-35.090 36.845-35.090c21.054 0 36.845 15.791 36.845 35.090s-17.545 35.090-36.845 35.090z" />
<glyph unicode="&#xe938;" glyph-name="image" d="M862.902 23.129h-701.807c-29.827 0-52.636 22.809-52.636 52.636v701.807c0 29.827 22.809 52.636 52.636 52.636h701.807c29.827 0 52.636-22.809 52.636-52.636v-701.807c0-29.827-22.809-52.636-52.636-52.636zM178.641 93.31h666.716v666.716h-666.716zM176.886 31.902c-5.264 0-12.282 1.755-17.545 5.264-17.545 10.527-22.809 31.581-12.282 47.372l198.26 335.113c10.527 17.545 31.581 22.809 47.372 12.282 17.545-10.527 22.809-31.581 12.282-47.372l-198.26-335.113c-5.264-10.527-17.545-17.545-29.827-17.545zM578.67 31.902c-12.282 0-24.563 7.018-29.827 17.545l-198.26 335.113c-10.527 17.545-3.509 38.599 12.282 47.372 17.545 10.527 38.599 3.509 47.372-12.282l198.26-335.113c10.527-17.545 3.509-38.599-12.282-47.372-5.264-3.509-10.527-5.264-17.545-5.264zM612.006 49.447c-7.018 0-14.036 1.755-19.3 7.018-15.791 10.527-19.3 33.336-8.773 49.126l115.798 166.679c10.527 15.791 33.336 19.3 49.126 8.773s19.3-33.336 8.773-49.126l-115.798-166.679c-7.018-10.527-17.545-15.791-29.827-15.791zM847.111 49.447c-10.527 0-22.809 5.264-28.072 15.791l-115.798 166.679c-10.527 15.791-7.018 38.599 8.773 49.126s38.599 7.018 49.126-8.773l115.798-166.679c10.527-15.791 7.018-38.599-8.773-49.126-7.018-5.264-14.036-7.018-21.054-7.018zM645.342 400.35c-75.444 0-135.098 61.408-135.098 135.098s61.408 135.098 135.098 135.098c73.69 0 135.098-61.408 135.098-135.098s-59.654-135.098-135.098-135.098zM645.342 602.12c-36.845 0-64.917-29.827-64.917-64.917 0-36.845 29.827-64.917 64.917-64.917 36.845 0 64.917 29.827 64.917 64.917 1.755 35.090-28.072 64.917-64.917 64.917z" />
<glyph unicode="&#xe939;" glyph-name="tag" d="M533.054 71.377v0c-8.773 0-19.3 1.755-24.563 8.773l-321.077 328.095c-14.036 14.036-14.036 35.090 0 49.126s36.845 12.282 49.126-1.755l296.513-303.531 247.387 247.387-296.513 305.286c-14.036 14.036-14.036 36.845 0 49.126 14.036 14.036 36.845 12.282 49.126 0l321.077-329.849c14.036-14.036 14.036-35.090 0-49.126l-298.268-294.759c-5.264-7.018-14.036-8.773-22.809-8.773zM211.977 395.963c-19.3 0-33.336 14.036-35.090 33.336l-17.545 315.813c0 10.527 3.509 19.3 10.527 26.318s17.545 10.527 26.318 10.527l315.813-17.545c19.3-1.755 33.336-17.545 33.336-36.845-1.755-19.3-17.545-33.336-36.845-33.336l-277.214 15.791 15.791-277.214c1.755-19.3-14.036-35.090-33.336-36.845 0 0-1.755 0-1.755 0zM406.729 471.407c-14.036 0-26.318 5.264-36.845 14.036-10.527 10.527-15.791 24.563-14.036 38.599 0 14.036 7.018 26.318 15.791 35.090 21.054 21.054 56.145 21.054 75.444 1.755 0 0 0 0 0 0 19.3-19.3 19.3-52.636-1.755-75.444-10.527-10.527-22.809-15.791-35.090-15.791-1.755 1.755-1.755 1.755-3.509 1.755zM420.765 534.57l-22.809-22.809c7.018-7.018 17.545-8.773 24.563-1.755 5.264 7.018 5.264 17.545-1.755 24.563zM406.729 541.588c0 0 0 0 0 0-5.264 0-8.773-1.755-10.527-5.264-5.264-5.264-5.264-17.545 1.755-24.563l22.809 22.809c0 0 0 0 0 0-3.509 5.264-8.773 7.018-14.036 7.018z" />
<glyph unicode="&#xe93a;" glyph-name="graph" d="M280.18 31.714h-120.203c-29.192 0-51.516 22.323-51.516 51.514v429.298c0 29.191 22.323 51.514 51.516 51.514h120.203c29.192 0 51.516-22.323 51.516-51.514v-429.298c0-29.191-22.323-51.514-51.516-51.514zM177.149 100.401h85.859v394.954h-85.859zM864.023 31.714h-120.203c-29.192 0-51.516 22.323-51.516 51.514v257.579c0 29.193 22.323 51.516 51.516 51.516h120.203c29.192 0 51.516-22.323 51.516-51.516v-257.579c0-29.191-22.323-51.514-51.516-51.514zM760.992 100.401h85.859v223.234h-85.859zM572.102 31.714h-120.203c-29.192 0-51.516 22.323-51.516 51.514v686.877c0 29.191 22.323 51.514 51.516 51.514h120.203c29.192 0 51.516-22.323 51.516-51.514v-686.875c0-29.193-22.323-51.516-51.516-51.516zM469.070 100.401h85.859v652.531h-85.859z" />
<glyph unicode="&#xe93b;" glyph-name="chest" d="M847.047 40.67h-666.72c-33.336 0-52.636 36.845-52.636 61.408v394.769c0 19.3 15.791 35.091 35.091 35.091s35.091-15.791 35.091-35.091v-385.996h631.63v385.996c0 19.3 15.791 35.091 35.091 35.091s35.091-15.791 35.091-35.091v-394.769c0-24.563-19.3-61.408-52.636-61.408zM618.958 637.209h-210.543c-29.827 0-52.636 22.809-52.636 52.636v70.181c0 29.827 22.809 52.636 52.636 52.636h210.543c29.827 0 52.636-22.809 52.636-52.636v-70.181c0-29.827-22.809-52.636-52.636-52.636zM425.96 707.39h175.453v35.091h-175.453zM776.865 409.121h-526.358c-75.445 0-140.362 70.181-140.362 149.135v92.99c0 17.545 8.773 28.072 14.036 31.581 15.791 12.282 31.581 7.018 36.845 7.018h701.811c7.018 1.755 22.809 5.264 36.845-7.018 5.264-3.509 14.036-14.036 14.036-31.581v-92.99c3.509-78.954-61.408-149.135-136.853-149.135zM180.326 619.664v-61.408c0-40.354 33.336-78.954 70.181-78.954h526.358c36.845 0 70.181 38.6 70.181 78.954v61.408zM583.868 268.759h-140.362c-36.845 0-52.636 45.618-52.636 68.427v89.481c0 19.3 15.791 35.091 35.091 35.091s35.091-15.791 35.091-35.091v-87.726h105.272v87.726c0 19.3 15.791 35.091 35.091 35.091s35.091-15.791 35.091-35.091v-89.481c0-22.809-15.791-68.427-52.636-68.427z" />
<glyph unicode="&#xe93c;" glyph-name="font" d="M511.999 62.605c-19.3 0-35.090 15.791-35.090 35.090v666.716c0 19.3 15.791 35.090 35.090 35.090s35.090-15.791 35.090-35.090v-666.716c0-19.3-15.791-35.090-35.090-35.090zM617.27 53.832v0h-210.542c-19.3 0-35.090 15.791-35.090 35.090s15.791 35.090 35.090 35.090v0h210.542c19.3 0 35.090-15.791 35.090-35.090s-15.791-35.090-35.090-35.090zM845.357 624.050c-19.3 0-35.090 15.791-35.090 35.090v70.181h-596.536v-70.181c0-19.3-15.791-35.090-35.090-35.090s-35.090 15.791-35.090 35.090v105.271c0 19.3 15.791 35.090 35.090 35.090h666.716c19.3 0 35.090-15.791 35.090-35.090v-105.271c0-19.3-15.791-35.090-35.090-35.090z" />
<glyph unicode="&#xe93d;" glyph-name="create" d="M196.405 74.888c-8.773 0-17.545 3.509-24.563 10.527-8.773 8.773-12.282 19.3-10.527 31.581l36.845 212.297c1.755 7.018 5.264 14.036 10.527 19.3l414.066 414.066c10.527 10.527 22.809 15.791 36.845 15.791v0c14.036 0 28.072-5.264 36.845-15.791l150.888-150.888c10.527-10.527 15.791-22.809 15.791-36.845s-5.264-28.072-15.791-36.845l-414.066-414.066c-5.264-5.264-12.282-8.773-19.3-10.527l-212.297-36.845c-1.755-1.755-3.509-1.755-5.264-1.755zM266.586 306.484l-26.318-152.643 152.643 26.318 394.766 394.766-126.325 126.325zM703.461 406.492c-8.773 0-17.545 3.509-24.563 10.527l-175.452 175.452c-14.036 14.036-14.036 35.090 0 49.126s35.090 14.036 49.126 0l175.452-175.452c14.036-14.036 14.036-35.090 0-49.126-5.264-7.018-15.791-10.527-24.563-10.527z" />
<glyph unicode="&#xe93e;" glyph-name="play" d="M511.999 58.219c-203.524 0-368.449 164.925-368.449 368.449s164.925 368.449 368.449 368.449c203.524 0 368.449-164.925 368.449-368.449s-164.925-368.449-368.449-368.449zM511.999 724.935c-164.925 0-298.268-133.343-298.268-298.268s133.343-298.268 298.268-298.268c164.925 0 298.268 133.343 298.268 298.268s-133.343 298.268-298.268 298.268zM441.818 259.988c-5.264 0-10.527 1.755-15.791 3.509-12.282 5.264-19.3 17.545-19.3 31.581v280.723c0 12.282 7.018 24.563 19.3 31.581 10.527 5.264 24.563 5.264 36.845-1.755l210.542-140.361c10.527-7.018 15.791-17.545 15.791-29.827s-5.264-22.809-15.791-29.827l-210.542-140.361c-7.018-3.509-14.036-5.264-21.054-5.264zM476.909 510.884v-149.134l112.289 75.444z" />
<glyph unicode="&#xe93f;" glyph-name="pause" d="M511.999 23.128c-222.824 0-403.539 180.715-403.539 403.539s180.715 403.539 403.539 403.539c222.824 0 403.539-180.715 403.539-403.539s-180.715-403.539-403.539-403.539zM511.999 760.025c-184.224 0-333.358-149.134-333.358-333.358s149.134-333.358 333.358-333.358c184.224 0 333.358 149.134 333.358 333.358s-149.134 333.358-333.358 333.358zM441.818 272.27c-19.3 0-35.090 15.791-35.090 35.090v228.087c0 19.3 15.791 35.090 35.090 35.090s35.090-15.791 35.090-35.090v-228.087c0-19.3-15.791-35.090-35.090-35.090zM582.179 272.27c-19.3 0-35.090 15.791-35.090 35.090v228.087c0 19.3 15.791 35.090 35.090 35.090s35.090-15.791 35.090-35.090v-228.087c0-19.3-15.791-35.090-35.090-35.090z" />
<glyph unicode="&#xe940;" glyph-name="cart" d="M430.204 13.481c-52.635 0-96.498 43.863-96.498 98.252s43.863 98.252 96.498 98.252c52.635 0 96.498-43.863 96.498-98.252s-43.863-98.252-96.498-98.252zM430.204 146.823c-17.545 0-33.336-15.791-33.336-35.090s14.036-35.090 33.336-35.090c19.3 0 33.336 15.791 33.336 35.090s-15.791 35.090-33.336 35.090zM705.662 13.481c-52.635 0-96.498 43.863-96.498 98.252s43.863 98.252 96.498 98.252c52.635 0 96.498-43.863 96.498-98.252s-43.863-98.252-96.498-98.252zM705.662 146.823c-17.545 0-33.336-15.791-33.336-35.090s14.036-35.090 33.336-35.090c19.3 0 33.336 15.791 33.336 35.090s-15.791 35.090-33.336 35.090zM788.124 331.047h-422.836c-26.318 0-42.108 22.809-49.126 45.617l-94.743 300.021c-5.264 14.036-1.755 28.072 5.264 40.354 8.773 12.282 22.809 17.545 38.599 17.545h621.096c7.018 0 28.072 0 40.354-17.545 5.264-7.018 10.527-19.3 5.264-38.599l-94.743-305.284c-7.018-21.054-24.563-42.108-49.126-42.108zM381.078 401.227h391.255l82.462 263.176h-556.179zM861.813 699.493c0 0 0 0 0 0zM252.999 669.667c-12.282 0-24.563 7.018-29.827 21.054l-31.581 80.707c-7.018 15.791 1.755 35.090 17.545 42.108s35.090-1.755 42.108-17.545l31.581-80.707c7.018-15.791-1.755-35.090-17.545-42.108-5.264-1.755-8.773-3.509-12.282-3.509zM300.371 188.932c-3.509 0-7.018 0-10.527 1.755-15.791 5.264-24.563 24.563-19.3 40.354l49.126 133.343c7.018 22.809 26.318 36.845 45.617 36.845 17.545 0 31.581-14.036 31.581-31.581 0-12.282-7.018-24.563-17.545-28.072l-49.126-131.588c-3.509-14.036-15.791-21.054-29.827-21.054zM212.645 769.674h-87.725c-19.3 0-35.090 15.791-35.090 35.090s15.791 35.090 35.090 35.090h87.725c19.3 0 35.090-15.791 35.090-35.090s-15.791-35.090-35.090-35.090zM809.178 173.141h-508.807c-19.3 0-35.090 15.791-35.090 35.090s15.791 35.090 35.090 35.090h508.807c19.3 0 35.090-15.791 35.090-35.090s-15.791-35.090-35.090-35.090z" />
<glyph unicode="&#xe941;" glyph-name="minus-circle" d="M512 58.221c-203.524 0-368.449 164.925-368.449 368.449s164.925 368.449 368.449 368.449c203.524 0 368.449-164.925 368.449-368.449s-166.679-368.449-368.449-368.449zM512 724.937c-164.925 0-298.268-133.343-298.268-298.268s133.343-298.268 298.268-298.268c164.925 0 298.268 133.343 298.268 298.268s-133.343 298.268-298.268 298.268zM650.607 382.806h-280.723c-19.3 0-35.090 15.791-35.090 35.090s15.791 35.090 35.090 35.090h280.723c19.3 0 35.090-15.791 35.090-35.090s-15.791-35.090-35.090-35.090z" />
<glyph unicode="&#xe942;" glyph-name="plus-circle" d="M512 58.219c-203.524 0-368.449 164.925-368.449 368.449s164.925 368.449 368.449 368.449c203.524 0 368.449-164.925 368.449-368.449s-164.925-368.449-368.449-368.449zM512 724.936c-164.925 0-298.268-133.343-298.268-298.268s133.343-298.268 298.268-298.268c164.925 0 298.268 133.343 298.268 298.268s-133.343 298.268-298.268 298.268zM517.263 242.443c-19.3 0-35.090 15.791-35.090 35.090v289.495c0 19.3 15.791 35.090 35.090 35.090s35.090-15.791 35.090-35.090v-289.495c0-19.3-15.791-35.090-35.090-35.090zM657.625 382.805h-280.723c-19.3 0-35.090 15.791-35.090 35.090s15.791 35.090 35.090 35.090h280.723c19.3 0 35.090-15.791 35.090-35.090s-15.791-35.090-35.090-35.090z" />
<glyph unicode="&#xe943;" glyph-name="lists" d="M854.13 558.258h-491.265c-19.3 0-35.090 15.791-35.090 35.090s15.791 35.090 35.090 35.090h491.265c19.3 0 35.090-15.791 35.090-35.090s-15.791-35.090-35.090-35.090zM854.13 382.806h-491.265c-19.3 0-35.090 15.791-35.090 35.090s15.791 35.090 35.090 35.090h491.265c19.3 0 35.090-15.791 35.090-35.090s-15.791-35.090-35.090-35.090zM854.13 207.355h-491.265c-19.3 0-35.090 15.791-35.090 35.090s15.791 35.090 35.090 35.090h491.265c19.3 0 35.090-15.791 35.090-35.090s-15.791-35.090-35.090-35.090zM187.413 549.485c-29.827 0-52.636 22.809-52.636 52.636s22.809 52.636 52.636 52.636c29.827 0 52.636-22.809 52.636-52.636s-22.809-52.636-52.636-52.636zM187.413 619.666c-10.527 0-17.545-7.018-17.545-17.545s7.018-17.545 17.545-17.545c10.527 0 17.545 7.018 17.545 17.545s-7.018 17.545-17.545 17.545zM187.413 374.034c-29.827 0-52.636 22.809-52.636 52.636s22.809 52.636 52.636 52.636c29.827 0 52.636-22.809 52.636-52.636s-22.809-52.636-52.636-52.636zM187.413 444.214c-10.527 0-17.545-7.018-17.545-17.545s7.018-17.545 17.545-17.545c10.527 0 17.545 7.018 17.545 17.545s-7.018 17.545-17.545 17.545zM187.413 198.582c-29.827 0-52.636 22.809-52.636 52.636s22.809 52.636 52.636 52.636c29.827 0 52.636-22.809 52.636-52.636s-22.809-52.636-52.636-52.636zM187.413 268.763c-10.527 0-17.545-7.018-17.545-17.545s7.018-17.545 17.545-17.545c10.527 0 17.545 7.018 17.545 17.545s-7.018 17.545-17.545 17.545z" />
<glyph unicode="&#xe944;" glyph-name="center" d="M862.902 145.945h-701.807c-29.827 0-52.636 22.809-52.636 52.636v456.174c0 29.827 22.809 52.636 52.636 52.636h701.807c29.827 0 52.636-22.809 52.636-52.636v-456.174c0-29.827-22.809-52.636-52.636-52.636zM178.641 216.126h666.716v421.084h-666.716zM511.999 312.624c-68.426 0-122.816 54.39-122.816 122.816s54.39 122.816 122.816 122.816c68.426 0 122.816-54.39 122.816-122.816s-54.39-122.816-122.816-122.816zM511.999 488.076c-29.827 0-52.636-22.809-52.636-52.636s22.809-52.636 52.636-52.636c29.827 0 52.636 22.809 52.636 52.636s-22.809 52.636-52.636 52.636z" />
<glyph unicode="&#xe945;" glyph-name="window" d="M862.903 128.4h-701.807c-33.336 0-52.636 35.090-52.636 59.654v494.774c0 12.282 3.509 22.809 12.282 29.827 12.282 12.282 28.072 12.282 36.845 12.282h708.825c8.773 0 24.563 0 36.845-12.282 8.773-7.018 12.282-17.545 12.282-29.827v-494.774c0-24.563-19.3-59.654-52.636-59.654zM178.641 198.58h666.716v456.174h-666.716zM880.448 391.577h-736.897c-19.3 0-35.090 15.791-35.090 35.090v140.361c0 19.3 15.791 35.090 35.090 35.090h736.897c19.3 0 35.090-15.791 35.090-35.090v-140.361c0-19.3-15.791-35.090-35.090-35.090zM178.641 461.758h666.716v70.181h-666.716z" />
<glyph unicode="&#xe946;" glyph-name="health" d="M511.123 5.584c-12.282 0-24.563 5.264-33.336 15.791l-187.733 222.824c-12.282 14.036-10.527 36.845 3.509 49.126s36.845 10.527 49.126-3.509l166.679-198.26 168.434 200.015c12.282 14.036 35.090 17.545 49.126 3.509 14.036-12.282 17.545-35.090 3.509-49.126l-187.733-224.578c-7.018-10.527-19.3-15.791-31.581-15.791zM490.069 66.992c0 0 0 0 0 0zM844.481 486.321c-7.018 0-14.036 1.755-21.054 7.018-15.791 12.282-19.3 33.336-7.018 49.126 12.282 17.545 21.054 36.845 26.318 57.899 1.755 10.527 3.509 19.3 3.509 29.827 0 82.462-68.426 149.134-150.888 149.134-66.672 0-126.325-43.863-145.625-107.026-5.264-15.791-17.545-24.563-33.336-24.563 0 0 0 0 0 0h-7.018c-15.791 0-28.072 10.527-33.336 24.563-19.3 63.163-78.953 107.026-145.625 107.026-82.462 0-150.888-66.672-150.888-149.134 0-10.527 1.755-21.054 3.509-29.827 3.509-21.054 12.282-38.599 24.563-56.145 10.527-15.791 7.018-36.845-7.018-49.126s-36.845-7.018-49.126 7.018c-17.545 24.563-29.827 52.636-36.845 82.462-3.509 14.036-5.264 29.827-5.264 43.863 0 121.062 100.007 219.315 221.069 219.315 73.69 0 142.116-36.845 182.47-94.744 40.354 57.899 108.78 94.744 182.47 94.744 121.062 0 221.069-98.253 221.069-219.315 0-15.791-1.755-29.827-5.264-43.863-7.018-31.581-19.3-59.654-38.599-84.217-7.018-10.527-17.545-14.036-28.072-14.036zM479.542 270.516c-1.755 0-5.264 0-7.018 0-10.527 1.755-19.3 8.773-24.563 17.545l-85.971 156.152-47.372-71.935c-7.018-8.773-17.545-17.545-28.072-19.3l-143.87-5.264c0 0 0 0 0 0-19.3 0-35.090 17.545-35.090 36.845s15.791 36.845 35.090 36.845l124.571 3.509 70.181 103.517c7.018 10.527 17.545 15.791 29.827 15.791s22.809-7.018 29.827-17.545l94.744-168.434 64.917 52.636c7.018 5.264 14.036 7.018 21.054 7.018h284.232c19.3 0 35.090-15.791 35.090-35.090s-15.791-35.090-35.090-35.090h-271.95l-87.726-70.181c-7.018-5.264-14.036-7.018-22.809-7.018z" />
<glyph unicode="&#xe947;" glyph-name="settings" d="M283.911 672.3h-140.361c-19.3 0-35.090 15.791-35.090 35.090s15.791 35.090 35.090 35.090h140.361c19.3 0 35.090-15.791 35.090-35.090s-15.791-35.090-35.090-35.090zM494.453 602.119h-210.542c-19.3 0-35.090 15.791-35.090 35.090v140.361c0 19.3 15.791 35.090 35.090 35.090h210.542c19.3 0 35.090-15.791 35.090-35.090v-140.361c0-19.3-15.791-35.090-35.090-35.090zM319.002 672.3h140.361v70.181h-140.361zM880.447 672.3h-385.994c-19.3 0-35.090 15.791-35.090 35.090s15.791 35.090 35.090 35.090h385.994c19.3 0 35.090-15.791 35.090-35.090s-15.791-35.090-35.090-35.090zM880.447 391.577h-140.361c-19.3 0-35.090 15.791-35.090 35.090s15.791 35.090 35.090 35.090h140.361c19.3 0 35.090-15.791 35.090-35.090s-15.791-35.090-35.090-35.090zM740.086 321.397h-210.542c-19.3 0-35.090 15.791-35.090 35.090v140.361c0 19.3 15.791 35.090 35.090 35.090h210.542c19.3 0 35.090-15.791 35.090-35.090v-140.361c0-19.3-15.791-35.090-35.090-35.090zM564.634 391.577h140.361v70.181h-140.361zM529.544 391.577h-385.994c-19.3 0-35.090 15.791-35.090 35.090s15.791 35.090 35.090 35.090h385.994c19.3 0 35.090-15.791 35.090-35.090s-15.791-35.090-35.090-35.090zM283.911 110.855h-140.361c-19.3 0-35.090 15.791-35.090 35.090s15.791 35.090 35.090 35.090h140.361c19.3 0 35.090-15.791 35.090-35.090s-15.791-35.090-35.090-35.090zM494.453 40.674h-210.542c-19.3 0-35.090 15.791-35.090 35.090v140.361c0 19.3 15.791 35.090 35.090 35.090h210.542c19.3 0 35.090-15.791 35.090-35.090v-140.361c0-19.3-15.791-35.090-35.090-35.090zM319.002 110.855h140.361v70.181h-140.361zM880.447 110.855h-385.994c-19.3 0-35.090 15.791-35.090 35.090s15.791 35.090 35.090 35.090h385.994c19.3 0 35.090-15.791 35.090-35.090s-15.791-35.090-35.090-35.090z" />
<glyph unicode="&#xe948;" glyph-name="misc-vertical" d="M512 531.939c-19.38 0-35.090 15.71-35.090 35.090s15.71 35.090 35.090 35.090c19.38 0 35.090-15.71 35.090-35.090s-15.71-35.090-35.090-35.090zM512 391.578c-19.38 0-35.090 15.71-35.090 35.090s15.71 35.090 35.090 35.090c19.38 0 35.090-15.71 35.090-35.090s-15.71-35.090-35.090-35.090zM512 251.216c-19.38 0-35.090 15.71-35.090 35.090s15.71 35.090 35.090 35.090c19.38 0 35.090-15.71 35.090-35.090s-15.71-35.090-35.090-35.090z" />
<glyph unicode="&#xe949;" glyph-name="clipboard" d="M795.5-46.933h-567.467c-29.867 0-51.2 21.333-51.2 51.2v708.267c0 25.6 21.333 42.667 42.667 42.667 0 0 42.667 0 98.133 0v38.4h85.333c0 59.733 46.933 106.667 106.667 106.667s106.667-46.933 106.667-106.667h85.333v-34.133c59.733 0 102.4 0 110.933 0 21.333 0 34.133-17.067 34.133-34.133v-716.8c4.267-29.867-21.333-55.467-51.2-55.467zM513.9 836.267c-21.333 0-42.667-17.067-42.667-42.667h81.067c0 21.333-17.067 42.667-38.4 42.667zM778.433 686.934h-72.533v-42.667h-384v42.667h-76.8v-665.6h533.333z" />
<glyph unicode="&#xe94a;" glyph-name="file-excel-box" d="M691.2 213.334h-85.333l-93.867 162.133-93.867-162.133h-85.333l136.533 213.333-136.533 213.333h85.333l93.867-162.133 93.867 162.133h85.333l-136.533-213.333zM810.667 810.667h-597.333c-47.36 0-85.333-37.973-85.333-85.333v-597.333c0-47.128 38.205-85.333 85.333-85.333h597.333c47.128 0 85.333 38.205 85.333 85.333v597.333c0 47.36-38.4 85.333-85.333 85.333z" />
<glyph unicode="&#xe94b;" glyph-name="file-powerpoint-box" d="M418.133 366.934h106.667c64 0 92.16 11.947 119.467 34.987 27.307 23.467 38.4 56.747 38.4 100.267 0 41.387-10.667 73.813-38.4 100.267-27.733 25.173-54.187 37.547-119.467 37.547h-183.467v-426.667h76.8v153.6zM810.667 810.667c47.128 0 85.333-38.205 85.333-85.333v-597.333c0-47.128-38.205-85.333-85.333-85.333h-597.333c-47.128 0-85.333 38.205-85.333 85.333v597.333c0 47.36 38.4 85.333 85.333 85.333h597.333zM418.133 426.667v153.6h98.133c28.16 0 49.92-10.667 64-25.6s21.333-30.72 21.333-52.907c0-23.893-7.68-40.533-21.333-53.76s-29.867-21.333-58.88-21.333h-103.253z" />
<glyph unicode="&#xe94c;" glyph-name="file-word-box" d="M661.333 213.334h-64l-85.333 320-85.333-320h-64l-102.4 426.667h72.533l65.707-320 83.627 320h59.733l84.053-320 65.28 320h72.533zM810.667 810.667h-597.333c-47.36 0-85.333-37.973-85.333-85.333v-597.333c0-47.128 38.205-85.333 85.333-85.333h597.333c47.128 0 85.333 38.205 85.333 85.333v597.333c0 47.36-38.4 85.333-85.333 85.333z" />
<glyph unicode="&#xe94d;" glyph-name="file-pdf-box" d="M487.68 471.894c-9.813-31.573-23.893-65.28-43.093-102.4-8.533-16.213-17.92-31.573-21.333-44.373l4.693 1.707c54.187 20.907 105.387 32.853 142.507 39.68-6.4 4.267-12.373 8.96-17.493 13.653-25.6 21.76-47.787 53.333-65.28 91.733zM764.16 309.334c-7.253-8.107-20.053-12.8-38.827-12.8-32.427 0-85.333 9.813-128 31.573-73.387-8.107-128-17.92-171.947-32-2.133-0.853-4.693-1.707-7.68-2.987-52.907-90.453-92.16-130.987-126.72-130.987-6.827 0-13.653 1.707-18.773 4.693l-20.48 13.227-1.28 2.133c-2.987 7.68-3.84 14.933-2.133 23.040 4.693 22.613 29.013 58.453 80.213 90.453 8.107 5.973 20.907 12.8 37.973 20.907 12.8 22.187 26.453 48.213 40.96 76.8 21.76 43.947 35.413 87.467 46.080 125.013v0.427c-15.787 51.627-25.173 82.773-9.387 139.52 3.84 16.213 17.92 32.853 33.707 32.853h10.24c9.813 0 19.2-3.413 26.027-10.24 28.16-28.16 14.933-96.853 0.853-153.6-0.853-2.56-1.28-4.693-1.707-5.973 17.067-48.213 41.387-87.040 68.267-109.227 11.093-8.533 23.467-17.067 37.12-24.747 19.2 2.133 37.547 2.987 55.040 2.987 52.907 0 84.907-9.387 97.28-29.44 4.267-6.827 6.4-14.933 5.12-23.467-0.427-10.667-4.267-20.48-11.947-28.16zM810.667 810.667h-597.333c-47.36 0-85.333-37.973-85.333-85.333v-597.333c0-47.128 38.205-85.333 85.333-85.333h597.333c47.128 0 85.333 38.205 85.333 85.333v597.333c0 47.36-38.4 85.333-85.333 85.333zM746.667 339.627c-4.267 4.267-21.333 14.933-81.067 14.933-2.987 0-5.973 0-9.813-4.267 31.147-13.653 61.44-21.76 81.067-21.76 2.987 0 5.547 0.427 8.107 0.853h1.707c2.133 0.853 3.413 1.28 3.84 5.547-0.853 1.28-1.707 2.987-3.84 4.693zM355.413 277.334c-8.96-5.12-16.213-9.813-20.48-13.227-30.293-27.733-49.493-55.893-51.627-72.107 19.2 6.4 44.373 34.56 72.107 85.333zM484.267 572.16l2.133 1.707c2.987 13.653 4.267 25.6 6.827 34.987l1.28 6.827c4.267 24.32 3.413 36.693-3.84 46.933l-6.4 2.133c-0.853-1.28-2.133-3.413-2.987-5.12-7.253-17.92-6.827-49.067 2.987-87.467z" />
<glyph unicode="&#xe94e;" d="M401.398 583.021h-168.754c-13.845 0-24.556 10.972-24.556 24.556s10.972 24.556 24.556 24.556h168.754c13.845 0 24.556-10.972 24.556-24.556s-10.71-24.556-24.556-24.556z" />
<glyph unicode="&#xe94f;" glyph-name="logout" d="M147.711 391.575c-8.355 0-16.711 3.342-23.395 10.026-13.368 13.368-13.368 33.421 0 46.789l165.434 168.776c13.368 13.368 33.421 13.368 46.789 0s13.368-33.421 0-46.789l-165.434-168.776c-5.013-6.684-15.039-10.026-23.395-10.026zM597.224 393.246h-451.184c-18.382 0-33.421 15.039-33.421 33.421s15.039 33.421 33.421 33.421h451.184c18.382 0 33.421-15.039 33.421-33.421s-15.039-33.421-33.421-33.421zM313.145 226.141c-8.355 0-16.711 3.342-23.395 10.026l-165.434 165.434c-13.368 13.368-13.368 33.421 0 46.789s33.421 13.368 46.789 0l165.434-165.434c13.368-13.368 13.368-33.421 0-46.789-5.013-6.684-13.368-10.026-23.395-10.026zM877.96 75.746h-451.184c-18.382 0-33.421 15.039-33.421 33.421s15.039 33.421 33.421 33.421h417.763v568.158h-417.763c-18.382 0-33.421 15.039-33.421 33.421s15.039 33.421 33.421 33.421h451.184c18.382 0 33.421-15.039 33.421-33.421v-635c0-18.382-15.039-33.421-33.421-33.421zM426.777 592.101c-18.382 0-33.421 15.039-33.421 33.421v118.645c0 18.382 15.039 33.421 33.421 33.421s33.421-15.039 33.421-33.421v-118.645c0-18.382-15.039-33.421-33.421-33.421zM426.777 75.746c-18.382 0-33.421 15.039-33.421 33.421v118.645c0 18.382 15.039 33.421 33.421 33.421s33.421-15.039 33.421-33.421v-118.645c0-18.382-15.039-33.421-33.421-33.421z" />
<glyph unicode="&#xe950;" glyph-name="close-circle" d="M512 853.334c235.947 0 426.667-190.72 426.667-426.667s-190.72-426.667-426.667-426.667c-235.947 0-426.667 190.72-426.667 426.667s190.72 426.667 426.667 426.667zM665.173 640l-153.173-153.173-153.173 153.173-60.16-60.16 153.173-153.173-153.173-153.173 60.16-60.16 153.173 153.173 153.173-153.173 60.16 60.16-153.173 153.173 153.173 153.173-60.16 60.16z" />
<glyph unicode="&#xe951;" glyph-name="chevron-down" d="M316.16 572.587l195.84-195.84 195.84 195.84 60.16-60.587-256-256-256 256 60.16 60.587z" />
<glyph unicode="&#xe952;" glyph-name="chevron-left" d="M657.493 231.254l-195.413 195.413 195.413 195.84-60.16 60.16-256-256 256-256 60.16 60.587z" />
<glyph unicode="&#xe953;" glyph-name="chevron-right" d="M366.507 231.254l195.413 195.413-195.413 195.84 60.16 60.16 256-256-256-256-60.16 60.587z" />
<glyph unicode="&#xe954;" glyph-name="chevron-up" d="M316.16 281.174l195.84 195.413 195.84-195.413 60.16 60.16-256 256-256-256 60.16-60.16z" />
<glyph unicode="&#xe955;" glyph-name="close" d="M810.667 665.174l-60.16 60.16-238.507-238.507-238.507 238.507-60.16-60.16 238.507-238.507-238.507-238.507 60.16-60.16 238.507 238.507 238.507-238.507 60.16 60.16-238.507 238.507 238.507 238.507z" />
<glyph unicode="&#xe956;" glyph-name="delete" d="M810.667 768h-149.333l-42.667 42.667h-213.333l-42.667-42.667h-149.333v-85.333h597.333zM256 128c0-47.128 38.205-85.333 85.333-85.333h341.333c47.128 0 85.333 38.205 85.333 85.333v512h-512v-512z" />
<glyph unicode="&#xe957;" glyph-name="pencil" d="M883.627 638.294c16.64 16.64 16.64 44.373 0 60.16l-99.84 99.84c-15.787 16.64-43.52 16.64-60.16 0l-78.507-78.080 160-160zM128 202.667v-160h160l471.893 472.32-160 160-471.893-472.32z" />
<glyph unicode="&#xe958;" glyph-name="filmstrip" d="M768 554.667h-85.333v85.333h85.333zM768 384h-85.333v85.333h85.333zM768 213.334h-85.333v85.333h85.333zM341.333 554.667h-85.333v85.333h85.333zM341.333 384h-85.333v85.333h85.333zM341.333 213.334h-85.333v85.333h85.333zM768 810.667v-85.333h-85.333v85.333h-341.333v-85.333h-85.333v85.333h-85.333v-768h85.333v85.333h85.333v-85.333h341.333v85.333h85.333v-85.333h85.333v768h-85.333z" />
<glyph unicode="&#xe959;" glyph-name="type_image" d="M362.667 362.667l106.667-128 149.333 192 192-256h-597.333zM896 128v597.333c0 47.36-38.4 85.333-85.333 85.333h-597.333c-47.128 0-85.333-38.205-85.333-85.333v-597.333c0-47.128 38.205-85.333 85.333-85.333h597.333c47.128 0 85.333 38.205 85.333 85.333z" />
<glyph unicode="&#xe95a;" glyph-name="menu-up" d="M298.667 298.667l213.333 213.333 213.333-213.333h-426.667z" />
<glyph unicode="&#xe95b;" glyph-name="menu-down" d="M298.667 512l213.333-213.333 213.333 213.333h-426.667z" />
<glyph unicode="&#xe95c;" glyph-name="crown" d="M213.333 256l-85.333 469.333 234.667-298.667 149.333 298.667 149.333-298.667 234.667 298.667-85.333-469.333h-597.333zM810.667 128c0-23.564-19.103-42.667-42.667-42.667h-512c-23.564 0-42.667 19.103-42.667 42.667v42.667h597.333v-42.667z" />
<glyph unicode="&#xe95d;" glyph-name="folder-outline" d="M853.333 170.667h-682.667v426.667h682.667zM853.333 682.667h-341.333l-85.333 85.333h-256c-47.36 0-85.333-37.973-85.333-85.333v-512c0-47.128 38.205-85.333 85.333-85.333h682.667c47.128 0 85.333 38.205 85.333 85.333v426.667c0 47.36-38.4 85.333-85.333 85.333z" />
<glyph unicode="&#xe95e;" glyph-name="history" d="M469.333 640v-218.027l200.96-119.040 33.707 54.613-170.667 101.12v181.333zM533.333 853.334c-150.613 0-281.173-81.92-351.147-203.52l-96.853 96.853v-277.333h277.333l-117.333 117.333c51.627 107.52 160 181.333 288 181.333 176.731 0 320-143.269 320-320s-143.269-320-320-320c-139.52 0-257.28 89.173-301.227 213.333h-89.6c46.933-171.947 203.52-298.667 390.827-298.667 223.573 0 405.333 181.333 405.333 405.333 0 223.859-181.474 405.333-405.333 405.333z" />
<glyph unicode="&#xe95f;" glyph-name="account-circle" d="M512 119.467c-106.667 0-200.96 54.613-256 136.533 1.28 85.333 170.667 132.267 256 132.267s254.72-46.933 256-132.267c-55.040-81.92-149.333-136.533-256-136.533zM512 725.334c70.692 0 128-57.308 128-128s-57.308-128-128-128c-70.692 0-128 57.308-128 128s57.308 128 128 128zM512 853.334c-235.641 0-426.667-191.025-426.667-426.667s191.025-426.667 426.667-426.667c235.641 0 426.667 191.025 426.667 426.667 0 235.947-192 426.667-426.667 426.667z" />
<glyph unicode="&#xe960;" glyph-name="check" d="M896 640l-512-512-234.667 234.667 60.16 60.16 174.507-174.080 451.84 451.413 60.16-60.16z" />
<glyph unicode="&#xe961;" glyph-name="bookcustom" d="M998.4 388.267l-21.333-17.067c4.267-17.067 4.267-29.867 4.267-46.933s0-34.133-4.267-51.2l21.333-12.8c8.533-4.267 12.8-17.067 17.067-25.6 0-12.8 0-21.333-8.533-29.867l-51.2-72.533c-4.267-8.533-17.067-12.8-25.6-17.067 0 0-4.267 0-8.533 0-8.533 0-17.067 4.267-21.333 8.533l-17.067 12.8c-8.533-4.267-21.333-12.8-29.867-17.067v-21.333c0-17.067-17.067-46.933-42.667-46.933h-85.333c-25.6 0-42.667 29.867-42.667 46.933v21.333c-8.533 4.267-12.8 8.533-21.333 12.8h-21.333l-12.8-8.533c-8.533-4.267-12.8-8.533-21.333-8.533-4.267 0-4.267 0-8.533 0-8.533 0-17.067 8.533-25.6 17.067h-17.067c-42.667 0-89.6-46.933-89.6-46.933s-17.067-17.067-34.133-17.067c-17.067 0-34.133 17.067-34.133 17.067s-46.933 46.933-89.6 46.933h-264.533c-21.333 0-34.133 17.067-34.133 34.133v580.267c0 21.333 17.067 34.133 34.133 34.133h256c51.2 0 102.4-21.333 136.533-55.467 38.4 34.133 85.333 55.467 136.533 55.467h256c17.067 0 34.133-12.8 34.133-34.133v-221.867c8.533-4.267 12.8-4.267 21.333-12.8l21.333 12.8c4.267 4.267 12.8 8.533 21.333 8.533 4.267 0 4.267 0 8.533 0 8.533 0 17.067-8.533 25.6-17.067l51.2-76.8c12.8-12.8 8.533-38.4-12.8-51.2zM396.8 665.6c-21.333 25.6-64 42.667-98.133 42.667h-217.6v-507.733h226.133c29.867 0 59.733-12.8 89.6-25.6v490.667zM789.333 708.267h-217.6c-34.133 0-76.8-17.067-98.133-42.667v-490.667c17.067 8.533 38.4 17.067 55.467 21.333l-8.533 12.8c-4.267 8.533-8.533 17.067-8.533 29.867 0 8.533 8.533 21.333 17.067 25.6l17.067 12.8c-4.267 17.067-4.267 34.133-4.267 51.2 0 12.8 0 29.867 4.267 46.933l-21.333 17.067c-8.533 8.533-17.067 17.067-17.067 25.6s0 21.333 8.533 29.867l51.2 76.8c8.533 8.533 17.067 12.8 25.6 17.067 4.267 0 4.267 0 8.533 0 8.533 0 17.067-4.267 21.333-8.533l21.333-12.8c8.533 8.533 21.333 12.8 34.133 17.067v12.8c0 17.067 17.067 42.667 42.667 42.667h68.267v115.2zM921.6 469.334l-38.4-25.6c0 0-4.267 0-4.267 0s-4.267 0-4.267 0l-12.8 8.533c-21.333 17.067-34.133 25.6-51.2 29.867l-17.067 4.267c-4.267 0-4.267 4.267-4.267 4.267v51.2h-55.467v-46.933c0-4.267 0-4.267-4.267-4.267l-17.067-4.267c-17.067-4.267-34.133-12.8-51.2-29.867l-12.8-8.533c0 0-4.267 0-4.267 0s-4.267 0-4.267 0l-34.133 21.333-34.133-42.667 38.4-25.6c0 0 4.267-4.267 4.267-8.533l-4.267-17.067c-4.267-17.067-8.533-29.867-8.533-51.2 0-17.067 4.267-34.133 8.533-51.2l4.267-17.067c0-4.267 0-4.267-4.267-8.533l-34.133-25.6 34.133-46.933 34.133 25.6c0 0 4.267 0 4.267 0s4.267 0 4.267 0l12.8-8.533c17.067-12.8 29.867-21.333 51.2-25.6l17.067-4.267c4.267 0 4.267-4.267 4.267-4.267v-51.2h55.467v51.2c0 4.267 0 4.267 4.267 4.267l12.8 8.533c17.067 4.267 34.133 12.8 51.2 25.6l12.8 8.533c0 0 4.267 0 4.267 0s4.267 0 4.267 0l34.133-25.6 34.133 46.933-34.133 25.6c-4.267 0-4.267 4.267-4.267 8.533l4.267 17.067c4.267 17.067 8.533 34.133 8.533 51.2s-4.267 34.133-8.533 51.2l-4.267 17.067c0 4.267 0 4.267 4.267 8.533l38.4 25.6-34.133 38.4zM763.733 221.867c-55.467 0-98.133 42.667-98.133 98.133s42.667 98.133 98.133 98.133c55.467 0 98.133-42.667 98.133-98.133 0-51.2-46.933-98.133-98.133-98.133zM763.733 358.4c-21.333 0-38.4-17.067-38.4-38.4s17.067-38.4 38.4-38.4c21.333 0 38.4 17.067 38.4 38.4s-17.067 38.4-38.4 38.4z" />
<glyph unicode="&#xe962;" glyph-name="tag_another" d="M889.411 422.91l-402.039-402.039c-11.272-11.272-30.059-22.544-48.846-22.544s-37.574 7.515-52.603 22.544l-278.046 278.046c-11.272 11.272-22.544 30.059-22.544 48.846s7.515 37.574 22.544 52.603l402.039 402.039c30.059 30.059 82.662 52.603 123.993 52.603h232.957c37.574 0 71.39-33.816 71.39-71.39v-232.957c3.757-45.088-18.787-97.692-48.846-127.751zM543.733 734.772l-383.252-383.252v-3.757l274.288-274.288c0 0 3.757 0 3.757 0v0l383.252 383.252zM761.66 746.044c-41.331 0-71.39-33.816-71.39-71.39 0-41.331 33.816-71.39 71.39-71.39 41.331 0 71.39 33.816 71.39 71.39s-30.059 71.39-71.39 71.39z" />
<glyph unicode="&#xe963;" glyph-name="globe" d="M512-0c-234.667 0-426.667 192-426.667 426.667s192 426.667 426.667 426.667c234.667 0 426.667-192 426.667-426.667s-192-426.667-426.667-426.667zM858.667 426.667c0 32-5.333 64-13.333 93.333h-152c2.667-29.333 5.333-58.667 5.333-93.333s-2.667-64-5.333-93.333h152c8 29.333 13.333 61.333 13.333 93.333zM810.667 253.334h-130.667c-16-69.333-40-120-66.667-157.333 85.333 24 154.667 82.667 197.333 157.333zM426.667 600h168c-21.333 72-50.667 125.333-85.333 162.667-29.333-37.333-61.333-90.667-82.667-162.667zM410.667 520c-2.667-29.333-5.333-58.667-5.333-93.333s2.667-64 5.333-93.333h200c2.667 29.333 5.333 58.667 5.333 93.333s-2.667 64-5.333 93.333zM597.333 253.334h-168c21.333-72 50.667-125.333 85.333-162.667 29.333 37.333 61.333 90.667 82.667 162.667zM410.667 96c-26.667 37.333-50.667 88-66.667 157.333h-130.667c42.667-74.667 112-133.333 197.333-157.333zM330.667 520h-152c-8-29.333-13.333-61.333-13.333-93.333s5.333-64 13.333-93.333h152c-2.667 29.333-5.333 58.667-5.333 93.333s2.667 64 5.333 93.333zM213.333 600h130.667c16 69.333 40 120 66.667 157.333-85.333-24-154.667-82.667-197.333-157.333zM613.333 757.334c26.667-37.333 50.667-88 66.667-157.333h130.667c-42.667 74.667-112 133.333-197.333 157.333z" />
<glyph unicode="&#xe964;" glyph-name="qrcode" d="M749.037 284.445v94.815h94.815v-94.815zM938.667 284.445v-189.63h-94.815v189.63zM843.852-0h-94.815v94.815h94.815zM559.407 94.815v-94.815h-94.815v189.63h189.63v94.815h94.815v-189.63zM654.222 474.074h94.815v-94.815h-94.815zM938.667 474.074v-94.815h-94.815v94.815zM654.222 853.334h284.444v-284.444h-284.444zM749.037 663.704h94.815v94.815h-94.815zM464.593 379.26h-94.815v94.815h189.63v-189.63h-94.815zM464.593 758.519h94.815v-189.63h-94.815zM85.333 853.334h284.444v-284.444h-284.444zM180.148 663.704h94.815v94.815h-94.815zM180.148 379.26h-94.815v94.815h94.815zM369.778-0h-284.444v284.444h284.444zM274.963 189.63h-94.815v-94.815h94.815z" />
<glyph unicode="&#xe965;" glyph-name="play-movie" d="M853.333 768h-682.667c-46.933 0-85.333-38.4-85.333-85.333v-512c0-46.933 38.4-85.333 85.333-85.333h682.667c46.933 0 85.333 38.4 85.333 85.333v512c0 46.933-38.4 85.333-85.333 85.333zM426.667 234.667v384l256-192-256-192z" />
<glyph unicode="&#xe966;" glyph-name="info-circle" d="M512-0c-234.667 0-426.667 192-426.667 426.667s192 426.667 426.667 426.667 426.667-192 426.667-426.667-192-426.667-426.667-426.667zM554.667 640h-85.333v-85.333h85.333v85.333zM469.333 469.334v-256h85.333v256h-85.333z" />
<glyph unicode="&#xe967;" glyph-name="heart_filled" d="M512 59.734v0c-12.8 0-29.867 8.533-38.4 17.067l-298.667 354.133c-4.267 4.267-25.6 34.133-21.333 29.867-12.8 21.333-21.333 42.667-25.6 68.267 0 17.067 0 29.867 0 46.933 0 119.467 93.867 221.867 213.333 221.867 68.267 0 136.533-38.4 174.933-93.867 38.4 59.733 102.4 93.867 174.933 93.867 119.467 0 213.333-98.133 213.333-221.867 0-17.067 0-29.867-4.267-42.667-4.267-25.6-12.8-46.933-25.6-68.267 4.267 4.267-17.067-25.6-25.6-29.867l-294.4-354.133c-12.8-17.067-29.867-21.333-42.667-21.333v0z" />
<glyph unicode="&#xe968;" glyph-name="good_filled" d="M430.933 110.934c17.067-8.533 38.4-12.8 51.2-17.067h256c38.4 0 89.6 17.067 110.933 64 17.067 38.4 72.533 268.8 81.067 294.4 4.267 29.867-8.533 81.067-29.867 106.667-17.067 21.333-34.133 25.6-46.933 25.6h-170.667c4.267 34.133 4.267 76.8-21.333 132.267-34.133 72.533-85.333 81.067-110.933 81.067-38.4 0-72.533-25.6-85.333-55.467-8.533-25.6-8.533-81.067-8.533-106.667 0 0-29.867-55.467-51.2-93.867-12.8-21.333-17.067-42.667-17.067-68.267 0-68.267 0-213.333 0-290.133 0-34.133 12.8-59.733 42.667-72.533zM260.267 55.467h-110.933c-29.867 0-59.733 25.6-59.733 55.467v375.467c0 29.867 25.6 64 59.733 64h110.933c34.133 0 59.733-34.133 59.733-64v-375.467c0-29.867-25.6-55.467-59.733-55.467z" />
<glyph unicode="&#xe969;" glyph-name="message_filled" d="M861.867 204.8h-209.067l-106.667-128c0-4.267-4.267-12.8-12.8-17.067-4.267 0-4.267-4.267-8.533-4.267 0 0 0 0 0 0-4.267 0-8.533-4.267-12.8-4.267 0 0 0 0 0 0v0c0 0 0 0 0 0s0 0 0 0c-4.267 0-8.533 0-12.8 4.267 0 0-4.267 0-4.267 4.267 0 0-4.267 0-4.267 4.267 0 0 0 0 0 4.267 0 0 0 0 0 0l-115.2 140.8h-213.333c-29.867 0-51.2 29.867-51.2 59.733v473.6c0 29.867 21.333 59.733 51.2 59.733h699.733c29.867 0 51.2-29.867 51.2-59.733v-477.867c4.267-29.867-17.067-59.733-51.2-59.733zM512 51.2c0 0 0 0 0 0s0 0 0 0v0z" />
<glyph unicode="&#xe96a;" glyph-name="share" d="M746.667 490.667c-55.467 0-102.4 25.6-132.267 64l-170.667-89.6c4.267-12.8 4.267-29.867 4.267-42.667s0-25.6-4.267-38.4l170.667-89.6c29.867 38.4 76.8 64 132.267 64 93.867 0 170.667-76.8 170.667-170.667s-76.8-170.667-170.667-170.667c-93.867 0-170.667 76.8-170.667 170.667 0 12.8 0 25.6 4.267 38.4l-170.667 89.6c-29.867-34.133-76.8-59.733-132.267-59.733-93.867 0-170.667 76.8-170.667 170.667s76.8 170.667 170.667 170.667c51.2 0 98.133-25.6 132.267-64l174.933 89.6c-4.267 12.8-4.267 25.6-4.267 38.4 0 93.867 76.8 170.667 170.667 170.667s170.667-76.8 170.667-170.667c-4.267-93.867-81.067-170.667-174.933-170.667zM746.667 93.867c55.467 0 98.133 42.667 98.133 98.133s-42.667 98.133-98.133 98.133c-55.467 0-98.133-42.667-98.133-98.133s46.933-98.133 98.133-98.133zM277.333 524.8c-55.467 0-98.133-42.667-98.133-98.133s42.667-98.133 98.133-98.133c55.467 0 98.133 42.667 98.133 98.133 0 51.2-42.667 98.133-98.133 98.133zM746.667 759.467c-55.467 0-98.133-42.667-98.133-98.133s42.667-98.133 98.133-98.133c55.467 0 98.133 42.667 98.133 98.133s-42.667 98.133-98.133 98.133z" />
<glyph unicode="&#xe96b;" glyph-name="paperplane" d="M938.667 776.534l-106.667-691.2c-8.533-34.133-42.667-51.2-72.533-38.4l-209.067 85.333-102.4-123.733c-29.867-38.4-93.867-17.067-93.867 34.133v166.4l-234.667 98.133c-42.667 17.067-42.667 72.533-8.533 93.867l746.667 430.933c38.4 21.333 85.333-8.533 81.067-55.467zM405.333 38.4l89.6 110.933-89.6 38.4v-149.333zM140.8 354.134l187.733-76.8 422.4 362.667c12.8 8.533 25.6-4.267 17.067-12.8l-332.8-392.533 345.6-140.8 106.667 691.2-746.667-430.933z" />
<glyph unicode="&#xe96c;" d="M401.398 456.586h-168.754c-13.845 0-24.556 10.972-24.556 24.556 0 13.845 10.972 24.556 24.556 24.556h168.754c13.845 0 24.556-10.972 24.556-24.556 0.261-13.584-10.71-24.556-24.556-24.556z" />
<glyph unicode="&#xe96d;" d="M401.398 329.368h-168.754c-13.845 0-24.556 10.972-24.556 24.556 0 13.845 10.972 24.556 24.556 24.556h168.754c13.845 0 24.556-10.972 24.556-24.556 0.261-13.845-10.71-24.556-24.556-24.556z" />
<glyph unicode="&#xe96e;" d="M546.133 83.543c0 0-17.067-17.067-34.133-12.8-17.067 0-34.133 17.067-34.133 17.067s-46.933 46.933-89.6 46.933h-268.8c-21.333 0-34.133 17.067-34.133 34.133v580.267c0 17.067 17.067 29.867 34.133 34.133h256c51.2 0 102.4-21.333 136.533-55.467 38.4 34.133 85.333 55.467 136.533 55.467h256c17.067 0 34.133-12.8 34.133-34.133v-584.533c0-17.067-12.8-34.133-34.133-34.133h-268.8c-42.667 0-89.6-46.933-89.6-46.933zM473.6 668.076c-21.333 25.6-64 42.667-98.133 42.667h-217.6v-507.733h226.133c29.867 0 59.733-12.8 89.6-25.6zM866.133 710.743h-217.6c-34.133 0-76.8-17.067-98.133-42.667v-490.667c29.867 12.8 59.733 25.6 89.6 25.6h226.133z" />
<glyph unicode="&#xe96f;" glyph-name="loader" d="M512 59.734c-204.8 0-366.933 166.4-366.933 366.933 0 153.6 93.867 285.867 230.4 341.333 17.067 8.533 38.4 0 46.933-21.333 4.267-17.067-4.267-34.133-21.333-42.667-110.933-42.667-187.733-153.6-187.733-277.333 0-166.4 132.267-298.667 298.667-298.667s298.667 132.267 298.667 298.667c0 89.6-38.4 166.4-98.133 221.867-12.8 12.8-17.067 34.133-4.267 46.933s34.133 17.067 51.2 4.267c72.533-68.267 119.467-166.4 119.467-273.067 0-204.8-162.133-366.933-366.933-366.933zM512 725.334c-17.067 0-34.133 17.067-34.133 34.133s17.067 34.133 34.133 34.133c17.067 0 34.133-17.067 34.133-34.133s-17.067-34.133-34.133-34.133z" />
<glyph unicode="&#xe970;" glyph-name="print" d="M195.715 853.334v-148.59h55.191v93.4h513.698v-93.4h55.191v148.59zM900.458 658.044h-776.915c-21.227 0-38.209-16.982-38.209-38.209v-348.126c0-8.491 4.245-12.736 12.736-12.736h101.891v-258.972h454.262l169.818 178.308v80.663h76.418c21.227 0 38.209 16.982 38.209 38.209v322.653c-4.245 21.227-21.227 38.209-38.209 38.209zM250.906 441.526h513.698v-233.499h-148.59v-148.59h-365.108zM853.758 522.189c-21.227 0-38.209 16.982-38.209 38.209s16.982 38.209 38.209 38.209c21.227 0 38.209-16.982 38.209-38.209 4.245-21.227-16.982-38.209-38.209-38.209z" />
<glyph unicode="&#xe971;" glyph-name="pdf" d="M477.867 490.667c-12.8-46.933-34.133-93.867-64-149.333-12.8-21.333-25.6-42.667-29.867-64l8.533 4.267c76.8 29.867 153.6 46.933 209.067 59.733-8.533 4.267-17.067 12.8-25.6 21.333-42.667 29.867-72.533 72.533-98.133 128zM878.933 256c-8.533-12.8-29.867-17.067-55.467-17.067-46.933 0-123.733 12.8-187.733 46.933-106.667-12.8-187.733-25.6-251.733-46.933-4.267 0-8.533-4.267-12.8-4.267-72.533-132.267-132.267-192-179.2-192-12.8 0-21.333 0-29.867 4.267l-29.867 21.333v4.267c-4.267 8.533-4.267 21.333-4.267 34.133 8.533 34.133 42.667 85.333 115.2 132.267 12.8 4.267 34.133 17.067 55.467 25.6 17.067 34.133 38.4 68.267 59.733 110.933 29.867 64 51.2 128 68.267 183.467v0c-21.333 76.8-38.4 123.733-12.8 204.8 4.267 25.6 25.6 46.933 46.933 46.933h12.8c12.8 0 29.867-4.267 38.4-12.8 42.667-42.667 21.333-140.8 0-221.867 0-4.267 0-8.533-4.267-8.533 25.6-68.267 59.733-128 98.133-157.867 17.067-12.8 34.133-25.6 55.467-34.133 29.867 4.267 55.467 4.267 81.067 4.267 76.8 0 123.733-12.8 140.8-42.667 12.8-17.067 12.8-25.6 12.8-38.4 0-17.067-4.267-29.867-17.067-42.667zM853.333 298.667c-4.267 4.267-29.867 21.333-119.467 21.333-4.267 0-8.533 0-12.8-4.267 46.933-21.333 89.6-29.867 119.467-29.867 4.267 0 8.533 0 12.8 0v0c4.267 0 4.267 0 4.267 8.533 0 0 0 4.267-4.267 4.267zM285.867 209.067c-12.8-8.533-25.6-12.8-29.867-21.333-42.667-38.4-72.533-81.067-76.8-106.667 29.867 12.8 64 55.467 106.667 128zM473.6 640v0c8.533 21.333 8.533 38.4 12.8 55.467v8.533c4.267 34.133 4.267 55.467-4.267 68.267l-8.533 4.267c-4.267-4.267-4.267-8.533-4.267-12.8-12.8-25.6-12.8-68.267 4.267-123.733z" />
</font>
</defs>
</svg>
